<?xml version="1.0" standalone="no"?>
<!DOCTYPE svg PUBLIC "-//W3C//DTD SVG 1.1//EN" "http://www.w3.org/Graphics/SVG/1.1/DTD/svg11.dtd" >
<svg xmlns="http://www.w3.org/2000/svg" width="100%" height="100%">
<metadata>
Created by FontXChange 20110222 at Mon Aug  1 13:57:50 2016
 By Abacus Desk
Copyright (C) 2000, 2007 Hoefler &#38; Frere-Jones. http://www.typography.com
</metadata>
<defs>
<font id="Gotham-BookItalic" horiz-adv-x="500" >
  <font-face 
    font-family="Gotham"
    font-weight="325"
    font-style="italic"
    font-stretch="normal"
    units-per-em="1000"
    panose-1="2 0 6 3 4 0 0 2 0 4"
    ascent="800"
    descent="-200"
    x-height="517"
    cap-height="700"
    bbox="-125 -244 1185 994"
    underline-thickness="20"
    underline-position="-113"
    slope="-12"
    stemh="68"
    stemv="81"
    unicode-range="U+0020-FB04"
  />
<missing-glyph 
d="M0 -200v1000h500v-1000h-500zM71 750l179 -390l179 390h-358zM50 -76l172 376l-172 376v-752zM450 676l-172 -376l172 -376v752zM250 240l-179 -390h358z" />
    <glyph glyph-name="f_f" unicode="ff" horiz-adv-x="750" 
d="M422 0l121 449h-72l18 68h71l17 62c27 103 88 153 178 153c39 0 75 -8 102 -22l-18 -66c-30 14 -55 21 -85 21c-49 0 -86 -30 -104 -98l-13 -50h169l-18 -68h-169l-121 -449h-76zM46 0l121 449h-71l18 68h71l17 62c27 104 88 153 177 153c40 0 76 -8 103 -22l-18 -66
c-30 14 -55 21 -85 21c-49 0 -86 -30 -104 -98l-13 -50h169l-19 -68h-168l-121 -449h-77z" />
    <glyph glyph-name="fi" unicode="fi" horiz-adv-x="639" 
d="M563 630l24 85h87l-23 -85h-88zM46 0l121 449h-71l18 68h71l17 62c27 104 88 153 177 153c40 0 76 -8 103 -22l-18 -66c-30 14 -55 21 -85 21c-49 0 -86 -30 -104 -98l-13 -50h169l-19 -68h-168l-121 -449h-77zM399 0l139 517h77l-139 -517h-77z" />
    <glyph glyph-name="fl" unicode="fl" horiz-adv-x="639" 
d="M46 0l121 449h-71l18 68h71l17 62c27 104 88 153 177 153c40 0 76 -8 103 -22l-18 -66c-30 14 -55 21 -85 21c-49 0 -86 -30 -104 -98l-13 -50h169l-19 -68h-168l-121 -449h-77zM399 0l196 730h77l-196 -730h-77z" />
    <glyph glyph-name="f_f_i" unicode="ffi" horiz-adv-x="1014" 
d="M939 630l23 85h88l-24 -85h-87zM422 0l121 449h-72l18 68h71l17 62c27 103 88 153 178 153c39 0 75 -8 102 -22l-18 -66c-30 14 -55 21 -85 21c-49 0 -86 -30 -104 -98l-13 -50h169l-18 -68h-169l-121 -449h-76zM46 0l121 449h-71l18 68h71l17 62c27 104 88 153 177 153
c40 0 76 -8 103 -22l-18 -66c-30 14 -55 21 -85 21c-49 0 -86 -30 -104 -98l-13 -50h169l-19 -68h-168l-121 -449h-77zM775 0l139 517h76l-139 -517h-76z" />
    <glyph glyph-name="f_f_l" unicode="ffl" horiz-adv-x="1014" 
d="M422 0l121 449h-72l18 68h71l17 62c27 103 88 153 178 153c39 0 75 -8 102 -22l-18 -66c-30 14 -55 21 -85 21c-49 0 -86 -30 -104 -98l-13 -50h169l-18 -68h-169l-121 -449h-76zM46 0l121 449h-71l18 68h71l17 62c27 104 88 153 177 153c40 0 76 -8 103 -22l-18 -66
c-30 14 -55 21 -85 21c-49 0 -86 -30 -104 -98l-13 -50h169l-19 -68h-168l-121 -449h-77zM775 0l196 730h76l-196 -730h-76z" />
    <glyph glyph-name=".notdef" 
d="M0 -200v1000h500v-1000h-500zM71 750l179 -390l179 390h-358zM50 -76l172 376l-172 376v-752zM450 676l-172 -376l172 -376v752zM250 240l-179 -390h358z" />
    <glyph glyph-name="A" unicode="A" horiz-adv-x="761" 
d="M-40 0l508 705h76l130 -705h-81l-32 185h-382l-132 -185h-87zM229 256h319l-63 359z" />
    <glyph glyph-name="B" unicode="B" horiz-adv-x="717" 
d="M30 0l188 700h262c137 0 217 -64 217 -163c0 -100 -76 -164 -175 -184c69 -21 124 -66 124 -145c0 -121 -110 -208 -294 -208h-322zM212 388h199c125 0 205 55 205 139c0 66 -52 102 -143 102h-197zM127 71h234c126 0 205 53 205 140c0 71 -67 107 -161 107h-212z" />
    <glyph glyph-name="C" unicode="C" horiz-adv-x="735" 
d="M383 -13c-165 0 -298 110 -298 290c0 226 188 435 420 435c130 0 217 -63 264 -150l-68 -42c-43 73 -100 119 -203 119c-182 0 -330 -174 -330 -359c0 -135 92 -219 219 -219c94 0 157 37 217 95l53 -52c-65 -65 -148 -117 -274 -117z" />
    <glyph glyph-name="D" unicode="D" horiz-adv-x="773" 
d="M30 0l188 700h169c116 0 212 -33 273 -93c50 -50 76 -116 76 -201c0 -107 -39 -201 -110 -273c-84 -84 -210 -133 -359 -133h-237zM129 73h148c117 0 218 39 289 110c56 56 88 132 88 218c0 66 -21 118 -59 155c-46 46 -120 71 -213 71h-104z" />
    <glyph glyph-name="E" unicode="E" horiz-adv-x="653" 
d="M30 0l188 700h501l-20 -72h-422l-64 -239h377l-20 -72h-376l-66 -245h427l-19 -72h-506z" />
    <glyph glyph-name="F" unicode="F" horiz-adv-x="658" 
d="M30 0l188 700h503l-19 -73h-425l-67 -250h380l-20 -72h-379l-82 -305h-79z" />
    <glyph glyph-name="G" unicode="G" horiz-adv-x="784" 
d="M396 -13c-170 0 -310 110 -310 298c0 216 184 427 430 427c144 0 220 -62 264 -128l-60 -47c-41 57 -97 103 -211 103c-194 0 -340 -175 -340 -352c0 -144 96 -228 232 -228c76 0 136 21 181 49l55 194h-211l19 71h289l-89 -314c-74 -46 -152 -73 -249 -73z" />
    <glyph glyph-name="H" unicode="H" horiz-adv-x="756" 
d="M30 0l188 700h79l-83 -311h399l83 311h80l-188 -700h-80l85 315h-399l-85 -315h-79z" />
    <glyph glyph-name="I" unicode="I" horiz-adv-x="291" 
d="M37 0l188 700h79l-188 -700h-79z" />
    <glyph glyph-name="J" unicode="J" horiz-adv-x="548" 
d="M194 -10c-110 0 -178 63 -208 149l63 37c29 -75 73 -113 146 -113c47 0 86 17 118 48c32 33 53 77 73 151l118 438h80l-122 -453c-23 -88 -49 -143 -95 -189c-45 -45 -108 -68 -173 -68z" />
    <glyph glyph-name="K" unicode="K" horiz-adv-x="718" 
d="M30 0l188 700h79l-111 -416l502 416h112l-376 -308l199 -392h-89l-174 346l-203 -167l-48 -179h-79z" />
    <glyph glyph-name="L" unicode="L" horiz-adv-x="607" 
d="M30 0l188 700h79l-168 -627h394l-20 -73h-473z" />
    <glyph glyph-name="M" unicode="M" horiz-adv-x="869" 
d="M30 0l188 700h74l151 -382l357 382h88l-188 -700h-80l152 567l-355 -375h-4l-153 374l-152 -566h-78z" />
    <glyph glyph-name="N" unicode="N" horiz-adv-x="786" 
d="M30 0l188 700h73l285 -568l153 568h77l-188 -700h-63l-292 581l-156 -581h-77z" />
    <glyph glyph-name="O" unicode="O" horiz-adv-x="842" 
d="M395 -13c-181 0 -307 133 -307 304c0 216 177 421 408 421c181 0 307 -133 307 -303c0 -217 -177 -422 -408 -422zM400 60c183 0 320 172 320 346c0 132 -89 233 -229 233c-183 0 -320 -172 -320 -346c0 -132 89 -233 229 -233z" />
    <glyph glyph-name="P" unicode="P" horiz-adv-x="667" 
d="M30 0l188 700h219c88 0 155 -21 200 -65c32 -33 50 -76 50 -130c0 -163 -139 -256 -345 -256h-166l-67 -249h-79zM195 319h151c165 0 259 66 259 181c0 34 -10 61 -32 83c-29 29 -76 44 -139 44h-157z" />
    <glyph glyph-name="Q" unicode="Q" horiz-adv-x="842" 
d="M672 -29l-65 82c-61 -41 -134 -66 -212 -66c-181 0 -307 133 -307 304c0 216 177 421 408 421c181 0 307 -133 307 -303c0 -118 -53 -233 -139 -313l70 -79zM400 60c60 0 116 19 162 51l-109 128l62 47l102 -129c64 65 103 156 103 249c0 132 -89 233 -229 233
c-183 0 -320 -172 -320 -346c0 -132 89 -233 229 -233z" />
    <glyph glyph-name="Q.alt" horiz-adv-x="842" 
d="M672 -29l-65 82c-61 -41 -134 -66 -212 -66c-181 0 -307 133 -307 304c0 216 177 421 408 421c181 0 307 -133 307 -303c0 -118 -53 -233 -139 -313l70 -79zM400 60c60 0 116 19 162 51l-109 128l62 47l102 -129c64 65 103 156 103 249c0 132 -89 233 -229 233
c-183 0 -320 -172 -320 -346c0 -132 89 -233 229 -233z" />
    <glyph glyph-name="R" unicode="R" horiz-adv-x="717" 
d="M30 0l188 700h252c88 0 154 -22 197 -64c30 -31 46 -73 46 -121c0 -61 -23 -112 -62 -152c-44 -44 -114 -72 -194 -83l144 -280h-91l-138 272h-190l-73 -272h-79zM201 343h190c92 0 160 25 199 64c27 28 42 61 42 102c0 30 -10 57 -29 76c-27 27 -71 42 -137 42h-188z
" />
    <glyph glyph-name="S" unicode="S" horiz-adv-x="637" 
d="M298 -10c-129 0 -226 50 -286 133l60 47c59 -72 128 -109 231 -109c101 0 177 55 177 131c0 54 -36 86 -144 128c-129 51 -192 96 -192 187c0 116 107 203 258 203c109 0 195 -44 248 -106l-58 -52c-51 56 -115 87 -197 87c-105 0 -168 -59 -168 -123
c0 -57 45 -86 155 -129c120 -46 181 -95 181 -185c0 -123 -116 -212 -265 -212z" />
    <glyph glyph-name="T" unicode="T" horiz-adv-x="616" 
d="M196 0l168 627h-236l20 73h551l-20 -73h-236l-168 -627h-79z" />
    <glyph glyph-name="U" unicode="U" horiz-adv-x="758" 
d="M347 -11c-167 0 -255 93 -255 224c0 38 5 73 15 109l100 378h80l-106 -399c-6 -21 -10 -49 -10 -79c0 -91 59 -160 183 -160c58 0 112 21 156 64c36 37 69 94 89 171l109 403h79l-112 -417c-24 -89 -61 -158 -110 -207c-57 -57 -131 -87 -218 -87z" />
    <glyph glyph-name="V" unicode="V" horiz-adv-x="717" 
d="M247 -5l-110 705h84l86 -602l409 602h90l-488 -705h-71z" />
    <glyph glyph-name="W" unicode="W" horiz-adv-x="1083" 
d="M206 -5l-61 705h82l44 -583l347 585h65l37 -585l356 583h89l-439 -705h-69l-40 565l-343 -565h-68z" />
    <glyph glyph-name="X" unicode="X" horiz-adv-x="694" 
d="M-31 0l359 362l-176 338h87l146 -286l279 286h102l-346 -349l182 -351h-87l-152 299l-291 -299h-103z" />
    <glyph glyph-name="Y" unicode="Y" horiz-adv-x="663" 
d="M216 0l76 282l-173 418h88l140 -353l330 353h101l-410 -431l-72 -269h-80z" />
    <glyph glyph-name="Z" unicode="Z" horiz-adv-x="669" 
d="M-19 0l14 53l597 576h-427l20 71h542l-14 -53l-598 -576h446l-19 -71h-561z" />
    <glyph glyph-name="a" unicode="a" horiz-adv-x="576" 
d="M182 -11c-87 0 -163 51 -163 143c0 116 97 187 230 187c69 0 134 -14 183 -28l4 14c4 14 6 32 6 46c0 66 -46 104 -139 104c-55 0 -100 -10 -146 -27l-14 65c52 20 105 32 172 32c130 0 203 -61 203 -161c0 -21 -4 -47 -10 -71l-78 -293h-76l21 81
c-47 -55 -111 -92 -193 -92zM207 50c87 0 177 62 202 153l10 36c-45 12 -103 23 -167 23c-91 0 -154 -50 -154 -121c0 -55 42 -91 109 -91z" />
    <glyph glyph-name="a.alt" horiz-adv-x="659" 
d="M255 -12c-117 0 -205 88 -205 219c0 183 139 321 290 321c106 0 166 -60 194 -128l31 117h77l-138 -517h-77l23 88c-49 -56 -112 -100 -195 -100zM277 56c115 0 230 117 230 244c0 90 -65 160 -160 160c-123 0 -216 -114 -216 -246c0 -96 60 -158 146 -158z" />
    <glyph glyph-name="b" unicode="b" horiz-adv-x="659" 
d="M319 -12c-106 0 -165 60 -194 128l-31 -116h-77l196 730h77l-82 -302c50 56 113 100 196 100c117 0 205 -87 205 -219c0 -183 -139 -321 -290 -321zM312 56c123 0 216 114 216 246c0 96 -59 158 -146 158c-115 0 -230 -117 -230 -243c0 -90 65 -161 160 -161z" />
    <glyph glyph-name="c" unicode="c" horiz-adv-x="562" 
d="M277 -12c-121 0 -229 84 -229 226c0 169 140 314 304 314c108 0 173 -57 206 -121l-62 -39c-30 50 -71 92 -149 92c-117 0 -220 -115 -220 -244c0 -102 73 -160 154 -160c61 0 108 27 153 68l45 -50c-53 -50 -116 -86 -202 -86z" />
    <glyph glyph-name="d" unicode="d" horiz-adv-x="659" 
d="M255 -12c-117 0 -205 88 -205 219c0 183 139 321 290 321c106 0 166 -60 194 -128l88 330h77l-195 -730h-77l23 88c-49 -56 -112 -100 -195 -100zM277 56c115 0 230 117 230 244c0 90 -65 160 -160 160c-123 0 -216 -114 -216 -246c0 -96 60 -158 146 -158z" />
    <glyph glyph-name="e" unicode="e" horiz-adv-x="589" 
d="M126 229c-1 -6 -1 -12 -1 -18c0 -94 60 -156 156 -156c67 0 112 23 159 61l40 -51c-51 -43 -112 -77 -203 -77c-137 0 -229 89 -229 220c0 158 128 320 301 320c131 0 200 -90 200 -198c0 -35 -7 -69 -19 -101h-404zM137 291h333c2 10 4 22 4 39c0 71 -40 133 -129 133
c-102 0 -179 -77 -208 -172z" />
    <glyph glyph-name="f" unicode="f" horiz-adv-x="375" 
d="M46 0l121 449h-71l18 68h71l17 62c27 104 88 153 177 153c40 0 76 -8 103 -22l-18 -66c-30 14 -55 21 -85 21c-49 0 -86 -30 -104 -98l-13 -50h169l-19 -68h-168l-121 -449h-77z" />
    <glyph glyph-name="g" unicode="g" horiz-adv-x="659" 
d="M240 -162c-95 0 -189 34 -253 90l48 54c55 -47 125 -78 204 -78c65 0 114 21 145 53c32 31 50 71 65 124l14 52c-52 -53 -113 -93 -198 -93c-108 0 -210 71 -210 195c0 172 145 293 290 293c111 0 161 -62 190 -124l30 113h77l-118 -443c-22 -80 -47 -126 -84 -163
c-48 -48 -112 -73 -200 -73zM287 106c117 0 221 102 221 208c0 76 -60 146 -159 146c-110 0 -213 -91 -213 -215c0 -92 72 -139 151 -139z" />
    <glyph glyph-name="h" unicode="h" horiz-adv-x="613" 
d="M17 0l196 730h77l-80 -297c47 53 101 95 180 95c100 0 165 -62 165 -160c0 -24 -6 -53 -13 -80l-76 -288h-77l78 293c5 17 8 41 8 58c0 68 -44 108 -116 108c-80 0 -160 -69 -187 -167l-78 -292h-77z" />
    <glyph glyph-name="i" unicode="i" horiz-adv-x="264" 
d="M188 630l23 85h88l-23 -85h-88zM24 0l139 517h77l-139 -517h-77z" />
    <glyph glyph-name="j" unicode="j" horiz-adv-x="263" 
d="M188 630l23 85h88l-23 -85h-88zM-50 -163c-26 0 -45 2 -69 9l18 65c13 -4 30 -7 44 -7c34 0 61 22 74 70l146 543h77l-148 -551c-24 -87 -76 -129 -142 -129z" />
    <glyph glyph-name="k" unicode="k" horiz-adv-x="568" 
d="M17 0l196 730h77l-133 -497l348 284h105l-277 -223l142 -294h-87l-120 245l-138 -110l-36 -135h-77z" />
    <glyph glyph-name="l" unicode="l" horiz-adv-x="264" 
d="M24 0l196 730h77l-196 -730h-77z" />
    <glyph glyph-name="m" unicode="m" horiz-adv-x="950" 
d="M17 0l138 517h77l-22 -84c47 53 96 95 172 95c87 0 133 -57 147 -117c46 71 116 117 208 117c93 0 158 -64 158 -160c0 -24 -8 -53 -14 -80l-77 -288h-77l79 293c4 17 7 41 7 58c0 67 -40 108 -107 108c-76 0 -153 -71 -179 -167l-77 -292h-77l78 293c5 17 8 41 8 58
c0 67 -41 108 -108 108c-76 0 -153 -71 -179 -167l-78 -292h-77z" />
    <glyph glyph-name="n" unicode="n" horiz-adv-x="613" 
d="M17 0l138 517h77l-22 -84c47 53 101 95 180 95c100 0 165 -62 165 -160c0 -24 -6 -53 -13 -80l-76 -288h-77l78 293c5 17 8 41 8 58c0 68 -44 108 -116 108c-80 0 -160 -69 -187 -167l-78 -292h-77z" />
    <glyph glyph-name="o" unicode="o" horiz-adv-x="638" 
d="M284 -12c-142 0 -235 98 -235 232c0 161 139 308 304 308c142 0 236 -97 236 -231c0 -165 -143 -309 -305 -309zM289 57c116 0 221 114 221 237c0 105 -66 166 -162 166c-119 0 -221 -118 -221 -238c0 -105 66 -165 162 -165z" />
    <glyph glyph-name="p" unicode="p" horiz-adv-x="659" 
d="M-26 -160l181 677h77l-24 -89c50 56 113 100 196 100c117 0 205 -87 205 -219c0 -183 -139 -321 -290 -321c-106 0 -165 60 -194 128l-74 -276h-77zM312 56c123 0 216 114 216 246c0 96 -59 158 -146 158c-115 0 -230 -117 -230 -243c0 -90 65 -161 160 -161z" />
    <glyph glyph-name="q" unicode="q" horiz-adv-x="659" 
d="M385 -160l66 249c-50 -56 -113 -101 -196 -101c-117 0 -205 88 -205 219c0 183 139 321 290 321c106 0 166 -59 194 -127l31 116h77l-180 -677h-77zM277 56c115 0 230 118 230 244c0 90 -65 160 -160 160c-123 0 -216 -114 -216 -246c0 -96 60 -158 146 -158z" />
    <glyph glyph-name="r" unicode="r" horiz-adv-x="402" 
d="M17 0l138 517h77l-35 -135c63 90 143 150 246 144l-22 -83h-5c-113 0 -226 -83 -267 -239l-55 -204h-77z" />
    <glyph glyph-name="s" unicode="s" horiz-adv-x="496" 
d="M217 -11c-80 0 -163 30 -223 90l50 50c56 -54 118 -76 180 -76c59 0 114 34 114 86c0 34 -23 59 -98 88c-93 36 -146 70 -146 142c0 88 76 159 196 159c76 0 148 -34 191 -71l-45 -53c-43 35 -97 60 -153 60c-73 0 -112 -39 -112 -82c0 -34 21 -56 103 -88
c93 -38 141 -75 141 -142c0 -96 -88 -163 -198 -163z" />
    <glyph glyph-name="t" unicode="t" horiz-adv-x="401" 
d="M202 -9c-74 0 -126 35 -126 102c0 18 3 38 7 54l81 302h-71l18 68h72l42 156h76l-42 -156h163l-18 -68h-163l-80 -298c-2 -12 -4 -27 -4 -38c0 -36 27 -53 71 -53c23 0 47 5 75 16l-19 -70c-27 -11 -52 -15 -82 -15z" />
    <glyph glyph-name="u" unicode="u" horiz-adv-x="613" 
d="M222 -11c-99 0 -164 62 -164 160c0 24 6 53 13 80l76 288h77l-79 -293c-4 -17 -7 -41 -7 -58c0 -68 44 -108 115 -108c80 0 161 69 187 168l78 291h77l-138 -517h-77l23 84c-47 -53 -102 -95 -181 -95z" />
    <glyph glyph-name="v" unicode="v" horiz-adv-x="566" 
d="M171 -4l-83 521h81l58 -429l286 429h87l-361 -521h-68z" />
    <glyph glyph-name="w" unicode="w" horiz-adv-x="848" 
d="M137 -4l-41 521h78l27 -412l250 414h64l29 -414l249 412h80l-322 -521h-68l-30 408l-249 -408h-67z" />
    <glyph glyph-name="x" unicode="x" horiz-adv-x="564" 
d="M-35 0l278 268l-130 249h85l98 -197l197 197h97l-263 -256l135 -261h-85l-103 210l-212 -210h-97z" />
    <glyph glyph-name="y" unicode="y" horiz-adv-x="574" 
d="M38 -163c-44 0 -80 13 -113 36l42 58c19 -15 54 -26 79 -26c44 0 83 23 135 96l-94 516h80l72 -431l278 431h87l-354 -534c-73 -107 -135 -146 -212 -146z" />
    <glyph glyph-name="z" unicode="z" horiz-adv-x="549" 
d="M-20 0l14 49l441 403h-321l18 65h432l-14 -49l-442 -403h338l-18 -65h-448z" />
    <glyph glyph-name="Aacute" unicode="&#xc1;" horiz-adv-x="761" 
d="M-40 0l508 705h76l130 -705h-81l-32 185h-382l-132 -185h-87zM229 256h319l-63 359zM485 772l135 129l78 -36l-139 -93h-74z" />
    <glyph glyph-name="aacute" unicode="&#xe1;" horiz-adv-x="576" 
d="M182 -11c-87 0 -163 51 -163 143c0 116 97 187 230 187c69 0 134 -14 183 -28l4 14c4 14 6 32 6 46c0 66 -46 104 -139 104c-55 0 -100 -10 -146 -27l-14 65c52 20 105 32 172 32c130 0 203 -61 203 -161c0 -21 -4 -47 -10 -71l-78 -293h-76l21 81
c-47 -55 -111 -92 -193 -92zM207 50c87 0 177 62 202 153l10 36c-45 12 -103 23 -167 23c-91 0 -154 -50 -154 -121c0 -55 42 -91 109 -91zM322 595l134 145l80 -37l-142 -108h-72z" />
    <glyph glyph-name="aacute.alt" horiz-adv-x="659" 
d="M368 595l134 145l80 -37l-142 -108h-72zM255 -12c-117 0 -205 88 -205 219c0 183 139 321 290 321c106 0 166 -60 194 -128l31 117h77l-138 -517h-77l23 88c-49 -56 -112 -100 -195 -100zM277 56c115 0 230 117 230 244c0 90 -65 160 -160 160
c-123 0 -216 -114 -216 -246c0 -96 60 -158 146 -158z" />
    <glyph glyph-name="Abreve" unicode="&#x102;" horiz-adv-x="761" 
d="M-40 0l508 705h76l130 -705h-81l-32 185h-382l-132 -185h-87zM229 256h319l-63 359zM527 770c-83 0 -131 42 -118 114h56c2 -33 22 -52 75 -52c50 0 82 20 102 52h63c-25 -72 -96 -114 -178 -114z" />
    <glyph glyph-name="abreve" unicode="&#x103;" horiz-adv-x="576" 
d="M182 -11c-87 0 -163 51 -163 143c0 116 97 187 230 187c69 0 134 -14 183 -28l4 14c4 14 6 32 6 46c0 66 -46 104 -139 104c-55 0 -100 -10 -146 -27l-14 65c52 20 105 32 172 32c130 0 203 -61 203 -161c0 -21 -4 -47 -10 -71l-78 -293h-76l21 81
c-47 -55 -111 -92 -193 -92zM207 50c87 0 177 62 202 153l10 36c-45 12 -103 23 -167 23c-91 0 -154 -50 -154 -121c0 -55 42 -91 109 -91zM367 593c-88 0 -131 51 -121 125h56c0 -38 20 -63 73 -63c54 0 86 27 108 63h60c-26 -76 -93 -125 -176 -125z" />
    <glyph glyph-name="abreve.alt" horiz-adv-x="659" 
d="M255 -12c-117 0 -205 88 -205 219c0 183 139 321 290 321c106 0 166 -60 194 -128l31 117h77l-138 -517h-77l23 88c-49 -56 -112 -100 -195 -100zM277 56c115 0 230 117 230 244c0 90 -65 160 -160 160c-123 0 -216 -114 -216 -246c0 -96 60 -158 146 -158zM412 593
c-88 0 -131 51 -121 125h56c0 -38 20 -63 73 -63c54 0 86 27 108 63h60c-26 -76 -93 -125 -176 -125z" />
    <glyph glyph-name="Acircumflex" unicode="&#xc2;" horiz-adv-x="761" 
d="M-40 0l508 705h76l130 -705h-81l-32 185h-382l-132 -185h-87zM229 256h319l-63 359zM371 770l142 118h72l78 -118h-67l-58 60l-91 -60h-76z" />
    <glyph glyph-name="acircumflex" unicode="&#xe2;" horiz-adv-x="576" 
d="M182 -11c-87 0 -163 51 -163 143c0 116 97 187 230 187c69 0 134 -14 183 -28l4 14c4 14 6 32 6 46c0 66 -46 104 -139 104c-55 0 -100 -10 -146 -27l-14 65c52 20 105 32 172 32c130 0 203 -61 203 -161c0 -21 -4 -47 -10 -71l-78 -293h-76l21 81
c-47 -55 -111 -92 -193 -92zM207 50c87 0 177 62 202 153l10 36c-45 12 -103 23 -167 23c-91 0 -154 -50 -154 -121c0 -55 42 -91 109 -91zM216 595l141 131h68l71 -131h-62l-54 67l-96 -67h-68z" />
    <glyph glyph-name="acircumflex.alt" horiz-adv-x="659" 
d="M262 595l141 131h68l71 -131h-62l-54 67l-96 -67h-68zM255 -12c-117 0 -205 88 -205 219c0 183 139 321 290 321c106 0 166 -60 194 -128l31 117h77l-138 -517h-77l23 88c-49 -56 -112 -100 -195 -100zM277 56c115 0 230 117 230 244c0 90 -65 160 -160 160
c-123 0 -216 -114 -216 -246c0 -96 60 -158 146 -158z" />
    <glyph glyph-name="Adieresis" unicode="&#xc4;" horiz-adv-x="761" 
d="M-40 0l508 705h76l130 -705h-81l-32 185h-382l-132 -185h-87zM229 256h319l-63 359zM572 772l25 90h93l-25 -90h-93zM385 772l25 90h93l-24 -90h-94z" />
    <glyph glyph-name="adieresis" unicode="&#xe4;" horiz-adv-x="576" 
d="M182 -11c-87 0 -163 51 -163 143c0 116 97 187 230 187c69 0 134 -14 183 -28l4 14c4 14 6 32 6 46c0 66 -46 104 -139 104c-55 0 -100 -10 -146 -27l-14 65c52 20 105 32 172 32c130 0 203 -61 203 -161c0 -21 -4 -47 -10 -71l-78 -293h-76l21 81
c-47 -55 -111 -92 -193 -92zM207 50c87 0 177 62 202 153l10 36c-45 12 -103 23 -167 23c-91 0 -154 -50 -154 -121c0 -55 42 -91 109 -91zM404 595l26 95h89l-26 -95h-89zM227 595l26 95h90l-26 -95h-90z" />
    <glyph glyph-name="adieresis.alt" horiz-adv-x="659" 
d="M451 595l26 95h89l-26 -95h-89zM274 595l26 95h90l-26 -95h-90zM255 -12c-117 0 -205 88 -205 219c0 183 139 321 290 321c106 0 166 -60 194 -128l31 117h77l-138 -517h-77l23 88c-49 -56 -112 -100 -195 -100zM277 56c115 0 230 117 230 244c0 90 -65 160 -160 160
c-123 0 -216 -114 -216 -246c0 -96 60 -158 146 -158z" />
    <glyph glyph-name="AE" unicode="&#xc6;" horiz-adv-x="1065" 
d="M-40 0l599 700h560l-20 -72h-409l-64 -239h364l-19 -72h-364l-66 -245h414l-19 -72h-493l50 185h-284l-158 -185h-91zM268 256h243l100 374h-25z" />
    <glyph glyph-name="ae" unicode="&#xe6;" horiz-adv-x="958" 
d="M445 107c-68 -70 -151 -118 -263 -118c-87 0 -163 51 -163 143c0 116 97 187 230 187c69 0 134 -14 183 -28l4 13c3 14 6 33 6 47c0 66 -46 104 -139 104c-55 0 -100 -10 -146 -27l-14 65c52 20 105 32 172 32c97 0 168 -40 190 -108c52 65 128 111 215 111
c130 0 199 -90 199 -198c0 -35 -7 -69 -19 -101h-404c-1 -6 -1 -12 -1 -18c0 -94 60 -156 156 -156c67 0 112 23 160 61l40 -51c-51 -43 -117 -77 -202 -77c-99 0 -171 45 -204 119zM507 291h333c2 10 4 22 4 39c0 71 -40 133 -129 133c-102 0 -179 -77 -208 -172zM427 237
c-48 14 -111 25 -175 25c-91 0 -154 -50 -154 -121c0 -55 42 -91 109 -91c87 0 158 41 222 109c-3 18 -5 35 -5 54c0 7 1 14 3 24z" />
    <glyph glyph-name="AEacute" unicode="&#x1fc;" horiz-adv-x="1065" 
d="M706 762l135 129l78 -36l-139 -93h-74zM-40 0l599 700h560l-20 -72h-409l-64 -239h364l-19 -72h-364l-66 -245h414l-19 -72h-493l50 185h-284l-158 -185h-91zM268 256h243l100 374h-25z" />
    <glyph glyph-name="aeacute" unicode="&#x1fd;" horiz-adv-x="958" 
d="M507 595l134 145l80 -37l-142 -108h-72zM445 107c-68 -70 -151 -118 -263 -118c-87 0 -163 51 -163 143c0 116 97 187 230 187c69 0 134 -14 183 -28l4 13c3 14 6 33 6 47c0 66 -46 104 -139 104c-55 0 -100 -10 -146 -27l-14 65c52 20 105 32 172 32
c97 0 168 -40 190 -108c52 65 128 111 215 111c130 0 199 -90 199 -198c0 -35 -7 -69 -19 -101h-404c-1 -6 -1 -12 -1 -18c0 -94 60 -156 156 -156c67 0 112 23 160 61l40 -51c-51 -43 -117 -77 -202 -77c-99 0 -171 45 -204 119zM507 291h333c2 10 4 22 4 39
c0 71 -40 133 -129 133c-102 0 -179 -77 -208 -172zM427 237c-48 14 -111 25 -175 25c-91 0 -154 -50 -154 -121c0 -55 42 -91 109 -91c87 0 158 41 222 109c-3 18 -5 35 -5 54c0 7 1 14 3 24z" />
    <glyph glyph-name="Agrave" unicode="&#xc0;" horiz-adv-x="761" 
d="M-40 0l508 705h76l130 -705h-81l-32 185h-382l-132 -185h-87zM229 256h319l-63 359zM473 901l66 -129h-55l-90 93z" />
    <glyph glyph-name="agrave" unicode="&#xe0;" horiz-adv-x="576" 
d="M182 -11c-87 0 -163 51 -163 143c0 116 97 187 230 187c69 0 134 -14 183 -28l4 14c4 14 6 32 6 46c0 66 -46 104 -139 104c-55 0 -100 -10 -146 -27l-14 65c52 20 105 32 172 32c130 0 203 -61 203 -161c0 -21 -4 -47 -10 -71l-78 -293h-76l21 81
c-47 -55 -111 -92 -193 -92zM207 50c87 0 177 62 202 153l10 36c-45 12 -103 23 -167 23c-91 0 -154 -50 -154 -121c0 -55 42 -91 109 -91zM325 595l-83 108l81 37l56 -145h-54z" />
    <glyph glyph-name="agrave.alt" horiz-adv-x="659" 
d="M255 -12c-117 0 -205 88 -205 219c0 183 139 321 290 321c106 0 166 -60 194 -128l31 117h77l-138 -517h-77l23 88c-49 -56 -112 -100 -195 -100zM277 56c115 0 230 117 230 244c0 90 -65 160 -160 160c-123 0 -216 -114 -216 -246c0 -96 60 -158 146 -158zM370 595
l-83 108l81 37l56 -145h-54z" />
    <glyph glyph-name="Amacron" unicode="&#x100;" horiz-adv-x="761" 
d="M-40 0l508 705h76l130 -705h-81l-32 185h-382l-132 -185h-87zM229 256h319l-63 359zM366 793l17 64h329l-17 -64h-329z" />
    <glyph glyph-name="amacron" unicode="&#x101;" horiz-adv-x="576" 
d="M182 -11c-87 0 -163 51 -163 143c0 116 97 187 230 187c69 0 134 -14 183 -28l4 14c4 14 6 32 6 46c0 66 -46 104 -139 104c-55 0 -100 -10 -146 -27l-14 65c52 20 105 32 172 32c130 0 203 -61 203 -161c0 -21 -4 -47 -10 -71l-78 -293h-76l21 81
c-47 -55 -111 -92 -193 -92zM207 50c87 0 177 62 202 153l10 36c-45 12 -103 23 -167 23c-91 0 -154 -50 -154 -121c0 -55 42 -91 109 -91zM207 615l17 63h319l-17 -63h-319z" />
    <glyph glyph-name="amacron.alt" horiz-adv-x="659" 
d="M255 -12c-117 0 -205 88 -205 219c0 183 139 321 290 321c106 0 166 -60 194 -128l31 117h77l-138 -517h-77l23 88c-49 -56 -112 -100 -195 -100zM277 56c115 0 230 117 230 244c0 90 -65 160 -160 160c-123 0 -216 -114 -216 -246c0 -96 60 -158 146 -158zM253 615
l17 63h319l-17 -63h-319z" />
    <glyph glyph-name="Aogonek" unicode="&#x104;" horiz-adv-x="761" 
d="M520 -99c0 37 30 69 73 99l-32 185h-382l-132 -185h-87l508 705h76l130 -705h-14c-47 -34 -71 -60 -71 -84c0 -22 19 -31 64 -36l-11 -44c-5 -1 -9 -1 -14 -1c-71 4 -108 25 -108 66zM229 256h319l-63 359z" />
    <glyph glyph-name="aogonek" unicode="&#x105;" horiz-adv-x="576" 
d="M281 -99c0 37 30 69 73 99l21 81c-47 -55 -111 -92 -193 -92c-87 0 -163 51 -163 143c0 116 97 187 230 187c69 0 134 -14 183 -28l4 14c4 14 6 32 6 46c0 66 -46 104 -139 104c-55 0 -100 -10 -146 -27l-14 65c52 20 105 32 172 32c130 0 203 -61 203 -161
c0 -21 -4 -47 -10 -71l-78 -293h-9c-47 -34 -71 -60 -71 -84c0 -22 19 -31 64 -36l-11 -44c-5 -1 -9 -1 -14 -1c-71 4 -108 25 -108 66zM207 50c87 0 177 62 202 153l10 36c-45 12 -103 23 -167 23c-91 0 -154 -50 -154 -121c0 -55 42 -91 109 -91z" />
    <glyph glyph-name="aogonek.alt" horiz-adv-x="659" 
d="M355 -99c0 37 30 69 72 99l23 88c-49 -56 -112 -100 -195 -100c-117 0 -205 88 -205 219c0 183 139 321 290 321c106 0 166 -60 194 -128l31 117h77l-138 -517h-9c-47 -34 -71 -60 -71 -84c0 -22 19 -31 64 -36l-11 -44c-5 -1 -9 -1 -14 -1c-71 4 -108 25 -108 66z
M277 56c115 0 230 117 230 244c0 90 -65 160 -160 160c-123 0 -216 -114 -216 -246c0 -96 60 -158 146 -158z" />
    <glyph glyph-name="Aring" unicode="&#xc5;" horiz-adv-x="761" 
d="M-40 0l482 669c-23 15 -37 39 -37 68c0 63 56 112 125 112c58 0 100 -37 100 -87c0 -48 -32 -86 -78 -103l122 -659h-81l-32 185h-382l-132 -185h-87zM229 257h319l-63 358zM508 688c42 0 77 31 77 70c0 30 -22 53 -59 53c-41 0 -76 -31 -76 -70c0 -32 24 -53 58 -53z
" />
    <glyph glyph-name="aring" unicode="&#xe5;" horiz-adv-x="576" 
d="M182 -11c-87 0 -163 51 -163 143c0 116 97 187 230 187c69 0 134 -14 183 -28l4 14c4 14 6 32 6 46c0 66 -46 104 -139 104c-55 0 -100 -10 -146 -27l-14 65c52 20 105 32 172 32c130 0 203 -61 203 -161c0 -21 -4 -47 -10 -71l-78 -293h-76l21 81
c-47 -55 -111 -92 -193 -92zM207 50c87 0 177 62 202 153l10 36c-45 12 -103 23 -167 23c-91 0 -154 -50 -154 -121c0 -55 42 -91 109 -91zM380 593c-61 0 -103 41 -103 95c0 61 56 114 121 114c61 0 103 -41 103 -95c0 -61 -56 -114 -121 -114zM381 630c42 0 78 35 78 75
c0 35 -24 60 -62 60c-43 0 -78 -35 -78 -75c0 -34 24 -60 62 -60z" />
    <glyph glyph-name="aring.alt" horiz-adv-x="659" 
d="M426 593c-61 0 -103 41 -103 95c0 61 56 114 121 114c61 0 103 -41 103 -95c0 -61 -56 -114 -121 -114zM427 630c42 0 78 35 78 75c0 35 -24 60 -62 60c-43 0 -78 -35 -78 -75c0 -34 24 -60 62 -60zM255 -12c-117 0 -205 88 -205 219c0 183 139 321 290 321
c106 0 166 -60 194 -128l31 117h77l-138 -517h-77l23 88c-49 -56 -112 -100 -195 -100zM277 56c115 0 230 117 230 244c0 90 -65 160 -160 160c-123 0 -216 -114 -216 -246c0 -96 60 -158 146 -158z" />
    <glyph glyph-name="aring.alt2" horiz-adv-x="576" 
d="M419 508c64 -25 99 -75 99 -144c0 -21 -4 -47 -10 -71l-78 -293h-76l21 81c-47 -55 -111 -92 -193 -92c-87 0 -163 51 -163 143c0 116 97 187 230 187c69 0 134 -14 183 -28l4 14c4 14 6 32 6 46c0 66 -46 104 -139 104c-55 0 -100 -10 -146 -27l-14 65
c41 16 83 26 131 30c-13 16 -21 37 -21 60c0 60 56 113 121 113c61 0 102 -41 102 -95c0 -39 -23 -73 -57 -93zM357 524c42 0 78 35 78 75c0 35 -24 60 -63 60c-42 0 -77 -35 -77 -75c0 -35 23 -60 62 -60zM207 50c87 0 177 62 202 153l10 36c-45 12 -103 23 -167 23
c-91 0 -154 -50 -154 -121c0 -55 42 -91 109 -91z" />
    <glyph glyph-name="Aringacute" unicode="&#x1fa;" horiz-adv-x="761" 
d="M-40 0l482 669c-23 15 -37 39 -37 68c0 63 56 112 125 112c58 0 100 -37 100 -87c0 -48 -32 -86 -78 -103l122 -659h-81l-32 185h-382l-132 -185h-87zM229 257h319l-63 358zM508 688c42 0 77 31 77 70c0 30 -22 53 -59 53c-41 0 -76 -31 -76 -70c0 -32 24 -53 58 -53z
M511 879l133 115l76 -35l-136 -80h-73z" />
    <glyph glyph-name="aringacute" unicode="&#x1fb;" horiz-adv-x="576" 
d="M392 831l131 126l74 -37l-137 -89h-68zM182 -11c-87 0 -163 51 -163 143c0 116 97 187 230 187c69 0 134 -14 183 -28l4 14c4 14 6 32 6 46c0 66 -46 104 -139 104c-55 0 -100 -10 -146 -27l-14 65c52 20 105 32 172 32c130 0 203 -61 203 -161c0 -21 -4 -47 -10 -71
l-78 -293h-76l21 81c-47 -55 -111 -92 -193 -92zM207 50c87 0 177 62 202 153l10 36c-45 12 -103 23 -167 23c-91 0 -154 -50 -154 -121c0 -55 42 -91 109 -91zM382 593c-61 0 -103 41 -103 95c0 61 56 114 121 114c61 0 103 -41 103 -95c0 -61 -56 -114 -121 -114zM383 630
c42 0 78 35 78 75c0 35 -24 60 -62 60c-43 0 -78 -35 -78 -75c0 -34 24 -60 62 -60z" />
    <glyph glyph-name="aringacute.alt" horiz-adv-x="659" 
d="M436 831l131 126l74 -37l-137 -89h-68zM426 593c-61 0 -103 41 -103 95c0 61 56 114 121 114c61 0 103 -41 103 -95c0 -61 -56 -114 -121 -114zM427 630c42 0 78 35 78 75c0 35 -24 60 -62 60c-43 0 -78 -35 -78 -75c0 -34 24 -60 62 -60zM255 -12
c-117 0 -205 88 -205 219c0 183 139 321 290 321c106 0 166 -60 194 -128l31 117h77l-138 -517h-77l23 88c-49 -56 -112 -100 -195 -100zM277 56c115 0 230 117 230 244c0 90 -65 160 -160 160c-123 0 -216 -114 -216 -246c0 -96 60 -158 146 -158z" />
    <glyph glyph-name="aringacute.alt2" horiz-adv-x="576" 
d="M368 734l132 126l74 -38l-137 -88h-69zM419 508c64 -25 99 -75 99 -144c0 -21 -4 -47 -10 -71l-78 -293h-76l21 81c-47 -55 -111 -92 -193 -92c-87 0 -163 51 -163 143c0 116 97 187 230 187c69 0 134 -14 183 -28l4 14c4 14 6 32 6 46c0 66 -46 104 -139 104
c-55 0 -100 -10 -146 -27l-14 65c41 16 83 26 131 30c-13 16 -21 37 -21 60c0 60 56 113 121 113c61 0 102 -41 102 -95c0 -39 -23 -73 -57 -93zM357 524c42 0 78 35 78 75c0 35 -24 60 -63 60c-42 0 -77 -35 -77 -75c0 -35 23 -60 62 -60zM207 50c87 0 177 62 202 153
l10 36c-45 12 -103 23 -167 23c-91 0 -154 -50 -154 -121c0 -55 42 -91 109 -91z" />
    <glyph glyph-name="Atilde" unicode="&#xc3;" horiz-adv-x="761" 
d="M-40 0l508 705h76l130 -705h-81l-32 185h-382l-132 -185h-87zM229 256h319l-63 359zM413 763l-48 15c32 69 63 101 109 101c45 0 95 -39 128 -39c26 0 40 14 60 47l49 -15c-32 -69 -63 -100 -109 -100c-45 0 -95 39 -128 39c-26 0 -40 -14 -61 -48z" />
    <glyph glyph-name="atilde" unicode="&#xe3;" horiz-adv-x="576" 
d="M182 -11c-87 0 -163 51 -163 143c0 116 97 187 230 187c69 0 134 -14 183 -28l4 14c4 14 6 32 6 46c0 66 -46 104 -139 104c-55 0 -100 -10 -146 -27l-14 65c52 20 105 32 172 32c130 0 203 -61 203 -161c0 -21 -4 -47 -10 -71l-78 -293h-76l21 81
c-47 -55 -111 -92 -193 -92zM207 50c87 0 177 62 202 153l10 36c-45 12 -103 23 -167 23c-91 0 -154 -50 -154 -121c0 -55 42 -91 109 -91zM248 586l-47 14c33 75 63 104 111 104c44 0 91 -40 126 -40c26 0 40 13 61 49l47 -13c-33 -76 -62 -105 -111 -105
c-44 0 -91 40 -126 40c-26 0 -40 -13 -61 -49z" />
    <glyph glyph-name="atilde.alt" horiz-adv-x="659" 
d="M255 -12c-117 0 -205 88 -205 219c0 183 139 321 290 321c106 0 166 -60 194 -128l31 117h77l-138 -517h-77l23 88c-49 -56 -112 -100 -195 -100zM277 56c115 0 230 117 230 244c0 90 -65 160 -160 160c-123 0 -216 -114 -216 -246c0 -96 60 -158 146 -158zM295 586
l-47 14c33 75 63 104 111 104c44 0 91 -40 126 -40c26 0 40 13 61 49l47 -13c-33 -76 -62 -105 -111 -105c-44 0 -91 40 -126 40c-26 0 -40 -13 -61 -49z" />
    <glyph glyph-name="Cacute" unicode="&#x106;" horiz-adv-x="735" 
d="M383 -13c-165 0 -298 110 -298 290c0 226 188 435 420 435c130 0 217 -63 264 -150l-68 -42c-43 73 -100 119 -203 119c-182 0 -330 -174 -330 -359c0 -135 92 -219 219 -219c94 0 157 37 217 95l53 -52c-65 -65 -148 -117 -274 -117zM486 772l135 129l78 -36l-139 -93
h-74z" />
    <glyph glyph-name="cacute" unicode="&#x107;" horiz-adv-x="562" 
d="M337 595l134 145l80 -37l-142 -108h-72zM277 -12c-121 0 -229 84 -229 226c0 169 140 314 304 314c108 0 173 -57 206 -121l-62 -39c-30 50 -71 92 -149 92c-117 0 -220 -115 -220 -244c0 -102 73 -160 154 -160c61 0 108 27 153 68l45 -50c-53 -50 -116 -86 -202 -86z
" />
    <glyph glyph-name="Ccaron" unicode="&#x10c;" horiz-adv-x="735" 
d="M383 -13c-165 0 -298 110 -298 290c0 226 188 435 420 435c130 0 217 -63 264 -150l-68 -42c-43 73 -100 119 -203 119c-182 0 -330 -174 -330 -359c0 -135 92 -219 219 -219c94 0 157 37 217 95l53 -52c-65 -65 -148 -117 -274 -117zM711 890l-141 -118h-73l-78 118h67
l58 -60l91 60h76z" />
    <glyph glyph-name="ccaron" unicode="&#x10d;" horiz-adv-x="562" 
d="M533 726l-142 -131h-68l-71 131h62l55 -67l96 67h68zM277 -12c-121 0 -229 84 -229 226c0 169 140 314 304 314c108 0 173 -57 206 -121l-62 -39c-30 50 -71 92 -149 92c-117 0 -220 -115 -220 -244c0 -102 73 -160 154 -160c61 0 108 27 153 68l45 -50
c-53 -50 -116 -86 -202 -86z" />
    <glyph glyph-name="Ccedilla" unicode="&#xc7;" horiz-adv-x="735" 
d="M273 -155l-66 34l109 115c-133 25 -231 128 -231 283c0 226 188 435 420 435c130 0 217 -63 264 -150l-68 -42c-43 73 -100 119 -203 119c-182 0 -330 -174 -330 -359c0 -135 92 -219 219 -219c94 0 157 37 217 95l53 -52c-65 -65 -148 -117 -274 -117h-7z" />
    <glyph glyph-name="ccedilla" unicode="&#xe7;" horiz-adv-x="562" 
d="M172 -155l-66 34l111 116c-95 23 -169 101 -169 219c0 169 140 314 304 314c108 0 173 -57 206 -121l-62 -39c-30 50 -71 92 -149 92c-117 0 -220 -115 -220 -244c0 -102 73 -160 154 -160c61 0 108 27 153 68l45 -50c-53 -50 -116 -86 -202 -86h-1z" />
    <glyph glyph-name="Cdotaccent" unicode="&#x10a;" horiz-adv-x="735" 
d="M478 772l25 90h96l-25 -90h-96zM383 -13c-165 0 -298 110 -298 290c0 226 188 435 420 435c130 0 217 -63 264 -150l-68 -42c-43 73 -100 119 -203 119c-182 0 -330 -174 -330 -359c0 -135 92 -219 219 -219c94 0 157 37 217 95l53 -52c-65 -65 -148 -117 -274 -117z" />
    <glyph glyph-name="cdotaccent" unicode="&#x10b;" horiz-adv-x="562" 
d="M277 -12c-121 0 -229 84 -229 226c0 169 140 314 304 314c108 0 173 -57 206 -121l-62 -39c-30 50 -71 92 -149 92c-117 0 -220 -115 -220 -244c0 -102 73 -160 154 -160c61 0 108 27 153 68l45 -50c-53 -50 -116 -86 -202 -86zM331 594l27 98h89l-27 -98h-89z" />
    <glyph glyph-name="Dcaron" unicode="&#x10e;" horiz-adv-x="773" 
d="M668 880l-141 -118h-73l-78 118h67l58 -60l91 60h76zM30 0l188 700h169c116 0 212 -33 273 -93c50 -50 76 -116 76 -201c0 -107 -39 -201 -110 -273c-84 -84 -210 -133 -359 -133h-237zM129 73h148c117 0 218 39 289 110c56 56 88 132 88 218c0 66 -21 118 -59 155
c-46 46 -120 71 -213 71h-104z" />
    <glyph glyph-name="dcaron" unicode="&#x10f;" horiz-adv-x="659" 
d="M722 565l55 165h77v-3l-95 -162h-37zM255 -12c-117 0 -205 88 -205 219c0 183 139 321 290 321c106 0 166 -60 194 -128l88 330h77l-195 -730h-77l23 88c-49 -56 -112 -100 -195 -100zM277 56c115 0 230 117 230 244c0 90 -65 160 -160 160c-123 0 -216 -114 -216 -246
c0 -96 60 -158 146 -158z" />
    <glyph glyph-name="Dcroat" unicode="&#x110;" horiz-adv-x="800" 
d="M57 0l85 316h-78l20 72h77l84 312h169c116 0 212 -33 273 -93c50 -50 76 -116 76 -201c0 -107 -39 -201 -110 -273c-84 -84 -210 -133 -359 -133h-237zM156 73h148c117 0 218 39 289 110c56 56 88 132 88 218c0 66 -21 118 -59 155c-46 46 -120 71 -213 71h-104l-64 -239
h207l-19 -72h-208z" />
    <glyph glyph-name="dcroat" unicode="&#x111;" horiz-adv-x="659" 
d="M413 611l15 56h177l17 63h77l-17 -63h69l-15 -56h-69l-163 -611h-77l23 88c-49 -56 -112 -100 -195 -100c-117 0 -205 88 -205 219c0 183 139 321 290 321c106 0 166 -60 194 -128l56 211h-177zM277 56c115 0 230 117 230 244c0 90 -65 160 -160 160
c-123 0 -216 -114 -216 -246c0 -96 60 -158 146 -158z" />
    <glyph glyph-name="Eacute" unicode="&#xc9;" horiz-adv-x="653" 
d="M439 762l135 129l78 -36l-139 -93h-74zM30 0l188 700h501l-20 -72h-422l-64 -239h377l-20 -72h-376l-66 -245h427l-19 -72h-506z" />
    <glyph glyph-name="eacute" unicode="&#xe9;" horiz-adv-x="589" 
d="M349 595l134 145l80 -37l-142 -108h-72zM126 229c-1 -6 -1 -12 -1 -18c0 -94 60 -156 156 -156c67 0 112 23 159 61l40 -51c-51 -43 -112 -77 -203 -77c-137 0 -229 89 -229 220c0 158 128 320 301 320c131 0 200 -90 200 -198c0 -35 -7 -69 -19 -101h-404zM137 291h333
c2 10 4 22 4 39c0 71 -40 133 -129 133c-102 0 -179 -77 -208 -172z" />
    <glyph glyph-name="Ebreve" unicode="&#x114;" horiz-adv-x="653" 
d="M482 760c-83 0 -131 42 -118 114h56c2 -33 22 -52 75 -52c50 0 82 20 102 52h63c-25 -72 -96 -114 -178 -114zM30 0l188 700h501l-20 -72h-422l-64 -239h377l-20 -72h-376l-66 -245h427l-19 -72h-506z" />
    <glyph glyph-name="ebreve" unicode="&#x115;" horiz-adv-x="589" 
d="M126 229c-1 -6 -1 -12 -1 -18c0 -94 60 -156 156 -156c67 0 112 23 159 61l40 -51c-51 -43 -112 -77 -203 -77c-137 0 -229 89 -229 220c0 158 128 320 301 320c131 0 200 -90 200 -198c0 -35 -7 -69 -19 -101h-404zM137 291h333c2 10 4 22 4 39c0 71 -40 133 -129 133
c-102 0 -179 -77 -208 -172zM394 593c-88 0 -131 51 -121 125h56c0 -38 20 -63 73 -63c54 0 86 27 108 63h60c-26 -76 -93 -125 -176 -125z" />
    <glyph glyph-name="Ecaron" unicode="&#x11a;" horiz-adv-x="653" 
d="M664 880l-141 -118h-73l-78 118h67l58 -60l91 60h76zM30 0l188 700h501l-20 -72h-422l-64 -239h377l-20 -72h-376l-66 -245h427l-19 -72h-506z" />
    <glyph glyph-name="ecaron" unicode="&#x11b;" horiz-adv-x="589" 
d="M546 726l-142 -131h-68l-71 131h62l55 -67l96 67h68zM126 229c-1 -6 -1 -12 -1 -18c0 -94 60 -156 156 -156c67 0 112 23 159 61l40 -51c-51 -43 -112 -77 -203 -77c-137 0 -229 89 -229 220c0 158 128 320 301 320c131 0 200 -90 200 -198c0 -35 -7 -69 -19 -101h-404z
M137 291h333c2 10 4 22 4 39c0 71 -40 133 -129 133c-102 0 -179 -77 -208 -172z" />
    <glyph glyph-name="Ecircumflex" unicode="&#xca;" horiz-adv-x="653" 
d="M30 0l188 700h501l-20 -72h-422l-64 -239h377l-20 -72h-376l-66 -245h427l-19 -72h-506zM326 762l142 118h72l78 -118h-67l-58 60l-91 -60h-76z" />
    <glyph glyph-name="ecircumflex" unicode="&#xea;" horiz-adv-x="589" 
d="M243 595l141 131h68l71 -131h-62l-54 67l-96 -67h-68zM126 229c-1 -6 -1 -12 -1 -18c0 -94 60 -156 156 -156c67 0 112 23 159 61l40 -51c-51 -43 -112 -77 -203 -77c-137 0 -229 89 -229 220c0 158 128 320 301 320c131 0 200 -90 200 -198c0 -35 -7 -69 -19 -101h-404z
M137 291h333c2 10 4 22 4 39c0 71 -40 133 -129 133c-102 0 -179 -77 -208 -172z" />
    <glyph glyph-name="Edieresis" unicode="&#xcb;" horiz-adv-x="653" 
d="M526 762l25 90h93l-25 -90h-93zM339 762l25 90h93l-24 -90h-94zM30 0l188 700h501l-20 -72h-422l-64 -239h377l-20 -72h-376l-66 -245h427l-19 -72h-506z" />
    <glyph glyph-name="edieresis" unicode="&#xeb;" horiz-adv-x="589" 
d="M432 595l26 95h89l-26 -95h-89zM255 595l26 95h90l-26 -95h-90zM126 229c-1 -6 -1 -12 -1 -18c0 -94 60 -156 156 -156c67 0 112 23 159 61l40 -51c-51 -43 -112 -77 -203 -77c-137 0 -229 89 -229 220c0 158 128 320 301 320c131 0 200 -90 200 -198
c0 -35 -7 -69 -19 -101h-404zM137 291h333c2 10 4 22 4 39c0 71 -40 133 -129 133c-102 0 -179 -77 -208 -172z" />
    <glyph glyph-name="Edotaccent" unicode="&#x116;" horiz-adv-x="653" 
d="M431 762l25 90h96l-25 -90h-96zM30 0l188 700h501l-20 -72h-422l-64 -239h377l-20 -72h-376l-66 -245h427l-19 -72h-506z" />
    <glyph glyph-name="edotaccent" unicode="&#x117;" horiz-adv-x="589" 
d="M126 229c-1 -6 -1 -12 -1 -18c0 -94 60 -156 156 -156c67 0 112 23 159 61l40 -51c-51 -43 -112 -77 -203 -77c-137 0 -229 89 -229 220c0 158 128 320 301 320c131 0 200 -90 200 -198c0 -35 -7 -69 -19 -101h-404zM137 291h333c2 10 4 22 4 39c0 71 -40 133 -129 133
c-102 0 -179 -77 -208 -172zM343 594l27 98h89l-27 -98h-89z" />
    <glyph glyph-name="Egrave" unicode="&#xc8;" horiz-adv-x="653" 
d="M428 891l66 -129h-55l-90 93zM30 0l188 700h501l-20 -72h-422l-64 -239h377l-20 -72h-376l-66 -245h427l-19 -72h-506z" />
    <glyph glyph-name="egrave" unicode="&#xe8;" horiz-adv-x="589" 
d="M126 229c-1 -6 -1 -12 -1 -18c0 -94 60 -156 156 -156c67 0 112 23 159 61l40 -51c-51 -43 -112 -77 -203 -77c-137 0 -229 89 -229 220c0 158 128 320 301 320c131 0 200 -90 200 -198c0 -35 -7 -69 -19 -101h-404zM137 291h333c2 10 4 22 4 39c0 71 -40 133 -129 133
c-102 0 -179 -77 -208 -172zM352 595l-83 108l81 37l56 -145h-54z" />
    <glyph glyph-name="Emacron" unicode="&#x112;" horiz-adv-x="653" 
d="M321 783l17 64h329l-17 -64h-329zM30 0l188 700h501l-20 -72h-422l-64 -239h377l-20 -72h-376l-66 -245h427l-19 -72h-506z" />
    <glyph glyph-name="emacron" unicode="&#x113;" horiz-adv-x="589" 
d="M126 229c-1 -6 -1 -12 -1 -18c0 -94 60 -156 156 -156c67 0 112 23 159 61l40 -51c-51 -43 -112 -77 -203 -77c-137 0 -229 89 -229 220c0 158 128 320 301 320c131 0 200 -90 200 -198c0 -35 -7 -69 -19 -101h-404zM137 291h333c2 10 4 22 4 39c0 71 -40 133 -129 133
c-102 0 -179 -77 -208 -172zM234 615l17 63h319l-17 -63h-319z" />
    <glyph glyph-name="Eogonek" unicode="&#x118;" horiz-adv-x="653" 
d="M30 0l188 700h501l-20 -72h-422l-64 -239h377l-20 -72h-376l-66 -245h427l-19 -72h-9c-47 -34 -71 -60 -71 -84c0 -22 19 -31 64 -36l-11 -44c-5 -1 -9 -1 -14 -1c-71 4 -108 25 -108 66c0 37 30 69 72 99h-429z" />
    <glyph glyph-name="eogonek" unicode="&#x119;" horiz-adv-x="589" 
d="M277 -12c-137 0 -229 89 -229 220c0 158 128 320 301 320c131 0 200 -90 200 -198c0 -35 -7 -69 -19 -101h-404c-1 -6 -1 -12 -1 -18c0 -94 60 -156 156 -156c67 0 112 23 159 61l40 -51l-75 -57c-54 -42 -76 -67 -76 -92c0 -22 19 -31 64 -36l-11 -44
c-6 -1 -10 -1 -15 -1c-71 4 -107 25 -107 66c0 33 24 63 60 90c-13 -2 -28 -3 -43 -3zM137 291h333c2 10 4 22 4 39c0 71 -40 133 -129 133c-102 0 -179 -77 -208 -172z" />
    <glyph glyph-name="Eth" unicode="&#xd0;" horiz-adv-x="800" 
d="M57 0l85 316h-78l20 72h77l84 312h169c116 0 212 -33 273 -93c50 -50 76 -116 76 -201c0 -107 -39 -201 -110 -273c-84 -84 -210 -133 -359 -133h-237zM156 73h148c117 0 218 39 289 110c56 56 88 132 88 218c0 66 -21 118 -59 155c-46 46 -120 71 -213 71h-104l-64 -239
h207l-19 -72h-208z" />
    <glyph glyph-name="eth" unicode="&#xf0;" horiz-adv-x="631" 
d="M568 689l-102 -40c70 -105 120 -218 120 -330c0 -102 -35 -182 -96 -243c-53 -53 -126 -88 -211 -88c-140 0 -231 98 -231 233c0 161 127 295 280 295c82 0 138 -40 179 -96c-18 54 -57 127 -110 202l-137 -54l-21 50l125 49c-17 21 -35 42 -53 63h97
c9 -12 18 -23 26 -35l112 44zM286 56c118 0 219 106 219 229c0 95 -67 168 -169 168c-120 0 -210 -108 -210 -228c0 -101 60 -169 160 -169z" />
    <glyph glyph-name="Gbreve" unicode="&#x11e;" horiz-adv-x="784" 
d="M540 770c-83 0 -131 42 -118 114h56c2 -33 22 -52 75 -52c50 0 82 20 102 52h63c-25 -72 -96 -114 -178 -114zM396 -13c-170 0 -310 110 -310 298c0 216 184 427 430 427c144 0 220 -62 264 -128l-60 -47c-41 57 -97 103 -211 103c-194 0 -340 -175 -340 -352
c0 -144 96 -228 232 -228c76 0 136 21 181 49l55 194h-211l19 71h289l-89 -314c-74 -46 -152 -73 -249 -73z" />
    <glyph glyph-name="gbreve" unicode="&#x11f;" horiz-adv-x="659" 
d="M240 -162c-95 0 -189 34 -253 90l48 54c55 -47 125 -78 204 -78c65 0 114 21 145 53c32 31 50 71 65 124l14 52c-52 -53 -113 -93 -198 -93c-108 0 -210 71 -210 195c0 172 145 293 290 293c111 0 161 -62 190 -124l30 113h77l-118 -443c-22 -80 -47 -126 -84 -163
c-48 -48 -112 -73 -200 -73zM287 106c117 0 221 102 221 208c0 76 -60 146 -159 146c-110 0 -213 -91 -213 -215c0 -92 72 -139 151 -139zM422 593c-88 0 -131 51 -121 125h56c0 -38 20 -63 73 -63c54 0 86 27 108 63h60c-26 -76 -93 -125 -176 -125z" />
    <glyph glyph-name="Gcommaaccent" unicode="&#x122;" horiz-adv-x="784" 
d="M237 -244l1 30c46 7 69 25 78 60h-41l22 83h90l-19 -71c-19 -70 -59 -96 -131 -102zM396 -13c-170 0 -310 110 -310 298c0 216 184 427 430 427c144 0 220 -62 264 -128l-60 -47c-41 57 -97 103 -211 103c-194 0 -340 -175 -340 -352c0 -144 96 -228 232 -228
c76 0 136 21 181 49l55 194h-211l19 71h289l-89 -314c-74 -46 -152 -73 -249 -73z" />
    <glyph glyph-name="gcommaaccent" unicode="&#x123;" horiz-adv-x="659" 
d="M518 766l-1 -30c-46 -7 -69 -25 -78 -60h41l-22 -83h-90l19 71c19 70 59 96 131 102zM240 -162c-95 0 -189 34 -253 90l48 54c55 -47 125 -78 204 -78c65 0 114 21 145 53c32 31 50 71 65 124l14 52c-52 -53 -113 -93 -198 -93c-108 0 -210 71 -210 195
c0 172 145 293 290 293c111 0 161 -62 190 -124l30 113h77l-118 -443c-22 -80 -47 -126 -84 -163c-48 -48 -112 -73 -200 -73zM287 106c117 0 221 102 221 208c0 76 -60 146 -159 146c-110 0 -213 -91 -213 -215c0 -92 72 -139 151 -139z" />
    <glyph glyph-name="Gdotaccent" unicode="&#x120;" horiz-adv-x="784" 
d="M490 772l25 90h96l-25 -90h-96zM396 -13c-170 0 -310 110 -310 298c0 216 184 427 430 427c144 0 220 -62 264 -128l-60 -47c-41 57 -97 103 -211 103c-194 0 -340 -175 -340 -352c0 -144 96 -228 232 -228c76 0 136 21 181 49l55 194h-211l19 71h289l-89 -314
c-74 -46 -152 -73 -249 -73z" />
    <glyph glyph-name="gdotaccent" unicode="&#x121;" horiz-adv-x="659" 
d="M240 -162c-95 0 -189 34 -253 90l48 54c55 -47 125 -78 204 -78c65 0 114 21 145 53c32 31 50 71 65 124l14 52c-52 -53 -113 -93 -198 -93c-108 0 -210 71 -210 195c0 172 145 293 290 293c111 0 161 -62 190 -124l30 113h77l-118 -443c-22 -80 -47 -126 -84 -163
c-48 -48 -112 -73 -200 -73zM287 106c117 0 221 102 221 208c0 76 -60 146 -159 146c-110 0 -213 -91 -213 -215c0 -92 72 -139 151 -139zM372 594l27 98h89l-27 -98h-89z" />
    <glyph glyph-name="Hbar" unicode="&#x126;" horiz-adv-x="756" 
d="M93 510l16 61h74l35 129h79l-35 -129h399l35 129h80l-35 -129h74l-17 -61h-73l-137 -510h-80l84 312h-399l-84 -312h-79l137 510h-74zM213 385h399l33 125h-399z" />
    <glyph glyph-name="hbar" unicode="&#x127;" horiz-adv-x="613" 
d="M17 0l164 611h-69l15 56h69l17 63h77l-17 -63h177l-15 -56h-177l-48 -178c47 53 101 95 180 95c100 0 165 -62 165 -160c0 -24 -6 -53 -13 -80l-76 -288h-77l78 293c5 17 8 41 8 58c0 68 -44 108 -116 108c-80 0 -160 -69 -187 -167l-78 -292h-77z" />
    <glyph glyph-name="Iacute" unicode="&#xcd;" horiz-adv-x="291" 
d="M37 0l188 700h79l-188 -700h-79zM241 762l135 129l78 -36l-139 -93h-74z" />
    <glyph glyph-name="iacute" unicode="&#xed;" horiz-adv-x="264" 
d="M184 595l134 145l80 -37l-142 -108h-72zM24 0l139 517h77l-139 -517h-77z" />
    <glyph glyph-name="Ibreve" unicode="&#x12c;" horiz-adv-x="291" 
d="M37 0l188 700h79l-188 -700h-79zM283 760c-83 0 -131 42 -118 114h56c2 -33 22 -52 75 -52c50 0 82 20 102 52h63c-25 -72 -96 -114 -178 -114z" />
    <glyph glyph-name="ibreve" unicode="&#x12d;" horiz-adv-x="264" 
d="M24 0l139 517h77l-139 -517h-77zM228 593c-88 0 -131 51 -121 125h56c0 -38 20 -63 73 -63c54 0 86 27 108 63h60c-26 -76 -93 -125 -176 -125z" />
    <glyph glyph-name="Icircumflex" unicode="&#xce;" horiz-adv-x="291" 
d="M37 0l188 700h79l-188 -700h-79zM128 762l142 118h72l78 -118h-67l-58 60l-91 -60h-76z" />
    <glyph glyph-name="icircumflex" unicode="&#xee;" horiz-adv-x="264" 
d="M78 595l141 131h68l71 -131h-62l-54 67l-96 -67h-68zM24 0l139 517h77l-139 -517h-77z" />
    <glyph glyph-name="Idieresis" unicode="&#xcf;" horiz-adv-x="291" 
d="M37 0l188 700h79l-188 -700h-79zM328 762l25 90h93l-25 -90h-93zM141 762l25 90h93l-24 -90h-94z" />
    <glyph glyph-name="idieresis" unicode="&#xef;" horiz-adv-x="264" 
d="M267 595l26 95h89l-26 -95h-89zM90 595l26 95h90l-26 -95h-90zM24 0l139 517h77l-139 -517h-77z" />
    <glyph glyph-name="Idotaccent" unicode="&#x130;" horiz-adv-x="291" 
d="M37 0l188 700h79l-188 -700h-79zM233 762l25 90h96l-25 -90h-96z" />
    <glyph glyph-name="dotlessi" unicode="&#x131;" horiz-adv-x="264" 
d="M24 0l139 517h77l-139 -517h-77z" />
    <glyph glyph-name="Igrave" unicode="&#xcc;" horiz-adv-x="291" 
d="M37 0l188 700h79l-188 -700h-79zM229 891l66 -129h-55l-90 93z" />
    <glyph glyph-name="igrave" unicode="&#xec;" horiz-adv-x="264" 
d="M24 0l139 517h77l-139 -517h-77zM186 595l-83 108l81 37l56 -145h-54z" />
    <glyph glyph-name="Imacron" unicode="&#x12a;" horiz-adv-x="291" 
d="M37 0l188 700h79l-188 -700h-79zM123 783l17 64h329l-17 -64h-329z" />
    <glyph glyph-name="imacron" unicode="&#x12b;" horiz-adv-x="264" 
d="M24 0l139 517h77l-139 -517h-77zM69 615l17 63h319l-17 -63h-319z" />
    <glyph glyph-name="Iogonek" unicode="&#x12e;" horiz-adv-x="291" 
d="M37 0l188 700h79l-188 -700h-7c-47 -34 -71 -60 -71 -84c0 -22 19 -31 64 -36l-11 -44c-5 -1 -9 -1 -14 -1c-71 4 -108 25 -108 66c0 37 30 69 72 99h-4z" />
    <glyph glyph-name="iogonek" unicode="&#x12f;" horiz-adv-x="264" 
d="M24 0l139 517h77l-139 -517h-7c-47 -34 -71 -60 -71 -84c0 -22 19 -31 64 -36l-11 -44c-5 -1 -9 -1 -14 -1c-71 4 -108 25 -108 66c0 37 30 69 72 99h-2zM188 630l23 85h88l-23 -85h-88z" />
    <glyph glyph-name="Kcommaaccent" unicode="&#x136;" horiz-adv-x="718" 
d="M188 -238l1 30c46 7 69 25 78 60h-41l22 83h90l-19 -71c-19 -70 -59 -96 -131 -102zM30 0l188 700h79l-111 -416l502 416h112l-376 -308l199 -392h-89l-174 346l-203 -167l-48 -179h-79z" />
    <glyph glyph-name="kcommaaccent" unicode="&#x137;" horiz-adv-x="568" 
d="M104 -243l1 30c46 7 69 25 78 60h-41l22 83h90l-19 -71c-19 -70 -59 -96 -131 -102zM17 0l196 730h77l-133 -497l348 284h105l-277 -223l142 -294h-87l-120 245l-138 -110l-36 -135h-77z" />
    <glyph glyph-name="Lacute" unicode="&#x139;" horiz-adv-x="607" 
d="M250 762l135 129l78 -36l-139 -93h-74zM30 0l188 700h79l-168 -627h394l-20 -73h-473z" />
    <glyph glyph-name="lacute" unicode="&#x13a;" horiz-adv-x="264" 
d="M241 782l135 129l78 -36l-139 -93h-74zM24 0l196 730h77l-196 -730h-77z" />
    <glyph glyph-name="Lcaron" unicode="&#x13d;" horiz-adv-x="607" 
d="M329 535l55 165h77v-3l-95 -162h-37zM30 0l188 700h79l-168 -627h394l-20 -73h-473z" />
    <glyph glyph-name="lcaron" unicode="&#x13e;" horiz-adv-x="264" 
d="M320 565l55 165h77v-3l-95 -162h-37zM24 0l196 730h77l-196 -730h-77z" />
    <glyph glyph-name="Lcommaaccent" unicode="&#x13b;" horiz-adv-x="607" 
d="M133 -243l1 30c46 7 69 25 78 60h-41l22 83h90l-19 -71c-19 -70 -59 -96 -131 -102zM30 0l188 700h79l-168 -627h394l-20 -73h-473z" />
    <glyph glyph-name="lcommaaccent" unicode="&#x13c;" horiz-adv-x="264" 
d="M-53 -243l1 30c46 7 69 25 78 60h-41l22 83h90l-19 -71c-19 -70 -59 -96 -131 -102zM24 0l196 730h77l-196 -730h-77z" />
    <glyph glyph-name="Ldot" unicode="&#x13f;" horiz-adv-x="621" 
d="M436 320l26 96h91l-26 -96h-91zM30 0l188 700h79l-168 -627h394l-20 -73h-473z" />
    <glyph glyph-name="ldot" unicode="&#x140;" horiz-adv-x="332" 
d="M273 323l25 92h84l-24 -92h-85zM24 0l196 730h77l-196 -730h-77z" />
    <glyph glyph-name="Lslash" unicode="&#x141;" horiz-adv-x="652" 
d="M474 391l-234 -66l-67 -252h394l-20 -73h-473l81 301l-80 -22l19 73l80 23l88 325h79l-81 -301l234 66z" />
    <glyph glyph-name="lslash" unicode="&#x142;" horiz-adv-x="323" 
d="M306 367l-83 -24l-92 -343h-77l86 320l-81 -23l20 75l81 23l90 335h77l-84 -312l83 24z" />
    <glyph glyph-name="Nacute" unicode="&#x143;" horiz-adv-x="786" 
d="M487 759l135 129l78 -36l-139 -93h-74zM30 0l188 700h73l285 -568l153 568h77l-188 -700h-63l-292 581l-156 -581h-77z" />
    <glyph glyph-name="nacute" unicode="&#x144;" horiz-adv-x="613" 
d="M355 595l134 145l80 -37l-142 -108h-72zM17 0l138 517h77l-22 -84c47 53 101 95 180 95c100 0 165 -62 165 -160c0 -24 -6 -53 -13 -80l-76 -288h-77l78 293c5 17 8 41 8 58c0 68 -44 108 -116 108c-80 0 -160 -69 -187 -167l-78 -292h-77z" />
    <glyph glyph-name="Ncaron" unicode="&#x147;" horiz-adv-x="786" 
d="M711 877l-141 -118h-73l-78 118h67l58 -60l91 60h76zM30 0l188 700h73l285 -568l153 568h77l-188 -700h-63l-292 581l-156 -581h-77z" />
    <glyph glyph-name="ncaron" unicode="&#x148;" horiz-adv-x="613" 
d="M551 726l-142 -131h-68l-71 131h62l55 -67l96 67h68zM17 0l138 517h77l-22 -84c47 53 101 95 180 95c100 0 165 -62 165 -160c0 -24 -6 -53 -13 -80l-76 -288h-77l78 293c5 17 8 41 8 58c0 68 -44 108 -116 108c-80 0 -160 -69 -187 -167l-78 -292h-77z" />
    <glyph glyph-name="Ncommaaccent" unicode="&#x145;" horiz-adv-x="786" 
d="M208 -238l1 30c46 7 69 25 78 60h-41l22 83h90l-19 -71c-19 -70 -59 -96 -131 -102zM30 0l188 700h73l285 -568l153 568h77l-188 -700h-63l-292 581l-156 -581h-77z" />
    <glyph glyph-name="ncommaaccent" unicode="&#x146;" horiz-adv-x="613" 
d="M118 -243l1 30c46 7 69 25 78 60h-41l22 83h90l-19 -71c-19 -70 -59 -96 -131 -102zM17 0l138 517h77l-22 -84c47 53 101 95 180 95c100 0 165 -62 165 -160c0 -24 -6 -53 -13 -80l-76 -288h-77l78 293c5 17 8 41 8 58c0 68 -44 108 -116 108c-80 0 -160 -69 -187 -167
l-78 -292h-77z" />
    <glyph glyph-name="Ntilde" unicode="&#xd1;" horiz-adv-x="786" 
d="M415 750l-48 15c32 69 63 101 109 101c45 0 95 -39 128 -39c26 0 40 14 60 47l49 -15c-32 -69 -63 -100 -109 -100c-45 0 -95 39 -128 39c-26 0 -40 -14 -61 -48zM30 0l188 700h73l285 -568l153 568h77l-188 -700h-63l-292 581l-156 -581h-77z" />
    <glyph glyph-name="ntilde" unicode="&#xf1;" horiz-adv-x="613" 
d="M17 0l138 517h77l-22 -84c47 53 101 95 180 95c100 0 165 -62 165 -160c0 -24 -6 -53 -13 -80l-76 -288h-77l78 293c5 17 8 41 8 58c0 68 -44 108 -116 108c-80 0 -160 -69 -187 -167l-78 -292h-77zM281 586l-47 14c33 75 63 104 111 104c44 0 91 -40 126 -40
c26 0 40 13 61 49l47 -13c-33 -76 -62 -105 -111 -105c-44 0 -91 40 -126 40c-26 0 -40 -13 -61 -49z" />
    <glyph glyph-name="Oacute" unicode="&#xd3;" horiz-adv-x="842" 
d="M504 772l135 129l78 -36l-139 -93h-74zM395 -13c-181 0 -307 133 -307 304c0 216 177 421 408 421c181 0 307 -133 307 -303c0 -217 -177 -422 -408 -422zM400 60c183 0 320 172 320 346c0 132 -89 233 -229 233c-183 0 -320 -172 -320 -346c0 -132 89 -233 229 -233z
" />
    <glyph glyph-name="oacute" unicode="&#xf3;" horiz-adv-x="638" 
d="M362 595l134 145l80 -37l-142 -108h-72zM284 -12c-142 0 -235 98 -235 232c0 161 139 308 304 308c142 0 236 -97 236 -231c0 -165 -143 -309 -305 -309zM289 57c116 0 221 114 221 237c0 105 -66 166 -162 166c-119 0 -221 -118 -221 -238c0 -105 66 -165 162 -165z" />
    <glyph glyph-name="Obreve" unicode="&#x14e;" horiz-adv-x="842" 
d="M548 770c-83 0 -131 42 -118 114h56c2 -33 22 -52 75 -52c50 0 82 20 102 52h63c-25 -72 -96 -114 -178 -114zM395 -13c-181 0 -307 133 -307 304c0 216 177 421 408 421c181 0 307 -133 307 -303c0 -217 -177 -422 -408 -422zM400 60c183 0 320 172 320 346
c0 132 -89 233 -229 233c-183 0 -320 -172 -320 -346c0 -132 89 -233 229 -233z" />
    <glyph glyph-name="obreve" unicode="&#x14f;" horiz-adv-x="638" 
d="M284 -12c-142 0 -235 98 -235 232c0 161 139 308 304 308c142 0 236 -97 236 -231c0 -165 -143 -309 -305 -309zM289 57c116 0 221 114 221 237c0 105 -66 166 -162 166c-119 0 -221 -118 -221 -238c0 -105 66 -165 162 -165zM409 593c-88 0 -131 51 -121 125h56
c0 -38 20 -63 73 -63c54 0 86 27 108 63h60c-26 -76 -93 -125 -176 -125z" />
    <glyph glyph-name="Ocircumflex" unicode="&#xd4;" horiz-adv-x="842" 
d="M395 -13c-181 0 -307 133 -307 304c0 216 177 421 408 421c181 0 307 -133 307 -303c0 -217 -177 -422 -408 -422zM400 60c183 0 320 172 320 346c0 132 -89 233 -229 233c-183 0 -320 -172 -320 -346c0 -132 89 -233 229 -233zM393 772l142 118h72l78 -118h-67l-58 60
l-91 -60h-76z" />
    <glyph glyph-name="ocircumflex" unicode="&#xf4;" horiz-adv-x="638" 
d="M258 595l141 131h68l71 -131h-62l-54 67l-96 -67h-68zM284 -12c-142 0 -235 98 -235 232c0 161 139 308 304 308c142 0 236 -97 236 -231c0 -165 -143 -309 -305 -309zM289 57c116 0 221 114 221 237c0 105 -66 166 -162 166c-119 0 -221 -118 -221 -238
c0 -105 66 -165 162 -165z" />
    <glyph glyph-name="Odieresis" unicode="&#xd6;" horiz-adv-x="842" 
d="M593 772l25 90h93l-25 -90h-93zM406 772l25 90h93l-24 -90h-94zM395 -13c-181 0 -307 133 -307 304c0 216 177 421 408 421c181 0 307 -133 307 -303c0 -217 -177 -422 -408 -422zM400 60c183 0 320 172 320 346c0 132 -89 233 -229 233c-183 0 -320 -172 -320 -346
c0 -132 89 -233 229 -233z" />
    <glyph glyph-name="odieresis" unicode="&#xf6;" horiz-adv-x="638" 
d="M447 595l26 95h89l-26 -95h-89zM270 595l26 95h90l-26 -95h-90zM284 -12c-142 0 -235 98 -235 232c0 161 139 308 304 308c142 0 236 -97 236 -231c0 -165 -143 -309 -305 -309zM289 57c116 0 221 114 221 237c0 105 -66 166 -162 166c-119 0 -221 -118 -221 -238
c0 -105 66 -165 162 -165z" />
    <glyph glyph-name="OE" unicode="&#x152;" horiz-adv-x="1132" 
d="M435 0c-117 0 -212 32 -274 94c-48 48 -76 115 -76 200c0 107 40 201 111 273c84 84 210 133 359 133h630l-19 -72h-409l-64 -239h363l-19 -72h-363l-66 -245h414l-20 -72h-567zM440 73h89l149 554h-133c-117 0 -218 -39 -290 -110c-56 -56 -87 -132 -87 -218
c0 -66 21 -118 58 -155c47 -46 120 -71 214 -71z" />
    <glyph glyph-name="oe" unicode="&#x153;" horiz-adv-x="1041" 
d="M579 229c-1 -6 -1 -12 -1 -18c0 -94 60 -156 156 -156c67 0 112 23 159 61l41 -51c-51 -43 -117 -77 -202 -77c-105 0 -183 55 -208 140c-50 -77 -132 -140 -242 -140c-138 0 -233 98 -233 232c0 161 138 308 304 308c113 0 185 -65 209 -147c48 79 126 147 240 147
c131 0 200 -90 200 -198c0 -35 -7 -69 -19 -101h-404zM590 291h333c2 10 4 22 4 39c0 71 -40 133 -129 133c-102 0 -179 -77 -208 -172zM289 57c116 0 221 111 221 233c0 107 -66 170 -162 170c-120 0 -221 -116 -221 -237c0 -104 66 -166 162 -166z" />
    <glyph glyph-name="Ograve" unicode="&#xd2;" horiz-adv-x="842" 
d="M495 901l66 -129h-55l-90 93zM395 -13c-181 0 -307 133 -307 304c0 216 177 421 408 421c181 0 307 -133 307 -303c0 -217 -177 -422 -408 -422zM400 60c183 0 320 172 320 346c0 132 -89 233 -229 233c-183 0 -320 -172 -320 -346c0 -132 89 -233 229 -233z" />
    <glyph glyph-name="ograve" unicode="&#xf2;" horiz-adv-x="638" 
d="M284 -12c-142 0 -235 98 -235 232c0 161 139 308 304 308c142 0 236 -97 236 -231c0 -165 -143 -309 -305 -309zM289 57c116 0 221 114 221 237c0 105 -66 166 -162 166c-119 0 -221 -118 -221 -238c0 -105 66 -165 162 -165zM366 595l-83 108l81 37l56 -145h-54z" />
    <glyph glyph-name="Ohungarumlaut" unicode="&#x150;" horiz-adv-x="842" 
d="M395 -13c-181 0 -307 133 -307 304c0 216 177 421 408 421c181 0 307 -133 307 -303c0 -217 -177 -422 -408 -422zM400 60c183 0 320 172 320 346c0 132 -89 233 -229 233c-183 0 -320 -172 -320 -346c0 -132 89 -233 229 -233zM413 772l135 129l77 -36l-140 -93h-72z
M568 772l135 129l77 -36l-140 -93h-72z" />
    <glyph glyph-name="ohungarumlaut" unicode="&#x151;" horiz-adv-x="638" 
d="M428 595l135 145l65 -37l-139 -108h-61zM264 595l135 145l64 -37l-137 -108h-62zM284 -12c-142 0 -235 98 -235 232c0 161 139 308 304 308c142 0 236 -97 236 -231c0 -165 -143 -309 -305 -309zM289 57c116 0 221 114 221 237c0 105 -66 166 -162 166
c-119 0 -221 -118 -221 -238c0 -105 66 -165 162 -165z" />
    <glyph glyph-name="Omacron" unicode="&#x14c;" horiz-adv-x="842" 
d="M388 793l17 64h329l-17 -64h-329zM395 -13c-181 0 -307 133 -307 304c0 216 177 421 408 421c181 0 307 -133 307 -303c0 -217 -177 -422 -408 -422zM400 60c183 0 320 172 320 346c0 132 -89 233 -229 233c-183 0 -320 -172 -320 -346c0 -132 89 -233 229 -233z" />
    <glyph glyph-name="omacron" unicode="&#x14d;" horiz-adv-x="638" 
d="M249 615l17 63h319l-17 -63h-319zM284 -12c-142 0 -235 98 -235 232c0 161 139 308 304 308c142 0 236 -97 236 -231c0 -165 -143 -309 -305 -309zM289 57c116 0 221 114 221 237c0 105 -66 166 -162 166c-119 0 -221 -118 -221 -238c0 -105 66 -165 162 -165z" />
    <glyph glyph-name="Oslash" unicode="&#xd8;" horiz-adv-x="842" 
d="M395 -13c-93 0 -171 36 -224 93l-100 -85h-90l153 131c-30 47 -46 103 -46 165c0 216 177 421 408 421c92 0 169 -34 223 -90l96 83h90l-149 -129c30 -47 47 -105 47 -167c0 -217 -177 -422 -408 -422zM195 177l465 396c-40 43 -98 68 -169 68
c-184 0 -322 -173 -322 -348c0 -43 9 -82 26 -116zM400 58c184 0 322 174 322 348c0 44 -10 84 -28 119l-464 -396c39 -44 98 -71 170 -71z" />
    <glyph glyph-name="oslash" unicode="&#xf8;" horiz-adv-x="638" 
d="M284 -12c-71 0 -128 25 -169 65l-70 -58h-85l120 101c-20 35 -31 77 -31 124c0 161 139 308 304 308c70 0 128 -23 168 -63l71 58h85l-121 -101c22 -36 33 -78 33 -125c0 -165 -143 -309 -305 -309zM141 146l325 272c-28 28 -68 43 -117 43c-121 0 -223 -118 -223 -239
c0 -29 6 -54 15 -76zM288 55c118 0 223 115 223 239c0 30 -5 56 -15 79l-326 -274c28 -28 69 -44 118 -44z" />
    <glyph glyph-name="Oslashacute" unicode="&#x1fe;" horiz-adv-x="842" 
d="M395 -13c-93 0 -171 36 -224 93l-100 -85h-90l153 131c-30 47 -46 103 -46 165c0 216 177 421 408 421c92 0 169 -34 223 -90l96 83h90l-149 -129c30 -47 47 -105 47 -167c0 -217 -177 -422 -408 -422zM195 177l465 396c-40 43 -98 68 -169 68
c-184 0 -322 -173 -322 -348c0 -43 9 -82 26 -116zM400 58c184 0 322 174 322 348c0 44 -10 84 -28 119l-464 -396c39 -44 98 -71 170 -71zM504 772l135 129l78 -36l-139 -93h-74z" />
    <glyph glyph-name="oslashacute" unicode="&#x1ff;" horiz-adv-x="638" 
d="M284 -12c-71 0 -128 25 -169 65l-70 -58h-85l120 101c-20 35 -31 77 -31 124c0 161 139 308 304 308c70 0 128 -23 168 -63l71 58h85l-121 -101c22 -36 33 -78 33 -125c0 -165 -143 -309 -305 -309zM141 146l325 272c-28 28 -68 43 -117 43c-121 0 -223 -118 -223 -239
c0 -29 6 -54 15 -76zM288 55c118 0 223 115 223 239c0 30 -5 56 -15 79l-326 -274c28 -28 69 -44 118 -44zM362 595l134 145l80 -37l-142 -108h-72z" />
    <glyph glyph-name="Otilde" unicode="&#xd5;" horiz-adv-x="842" 
d="M435 763l-48 15c32 69 63 101 109 101c45 0 95 -39 128 -39c26 0 40 14 60 47l49 -15c-32 -69 -63 -100 -109 -100c-45 0 -95 39 -128 39c-26 0 -40 -14 -61 -48zM395 -13c-181 0 -307 133 -307 304c0 216 177 421 408 421c181 0 307 -133 307 -303
c0 -217 -177 -422 -408 -422zM400 60c183 0 320 172 320 346c0 132 -89 233 -229 233c-183 0 -320 -172 -320 -346c0 -132 89 -233 229 -233z" />
    <glyph glyph-name="otilde" unicode="&#xf5;" horiz-adv-x="638" 
d="M284 -12c-142 0 -235 98 -235 232c0 161 139 308 304 308c142 0 236 -97 236 -231c0 -165 -143 -309 -305 -309zM289 57c116 0 221 114 221 237c0 105 -66 166 -162 166c-119 0 -221 -118 -221 -238c0 -105 66 -165 162 -165zM291 586l-47 14c33 75 63 104 111 104
c44 0 91 -40 126 -40c26 0 40 13 61 49l47 -13c-33 -76 -62 -105 -111 -105c-44 0 -91 40 -126 40c-26 0 -40 -13 -61 -49z" />
    <glyph glyph-name="Racute" unicode="&#x154;" horiz-adv-x="717" 
d="M30 0l188 700h252c88 0 154 -22 197 -64c30 -31 46 -73 46 -121c0 -61 -23 -112 -62 -152c-44 -44 -114 -72 -194 -83l144 -280h-91l-138 272h-190l-73 -272h-79zM201 343h190c92 0 160 25 199 64c27 28 42 61 42 102c0 30 -10 57 -29 76c-27 27 -71 42 -137 42h-188z
M418 762l135 129l78 -36l-139 -93h-74z" />
    <glyph glyph-name="racute" unicode="&#x155;" horiz-adv-x="402" 
d="M251 595l134 145l80 -37l-142 -108h-72zM17 0l138 517h77l-35 -135c63 90 143 150 246 144l-22 -83h-5c-113 0 -226 -83 -267 -239l-55 -204h-77z" />
    <glyph glyph-name="Rcaron" unicode="&#x158;" horiz-adv-x="717" 
d="M643 880l-141 -118h-73l-78 118h67l58 -60l91 60h76zM30 0l188 700h252c88 0 154 -22 197 -64c30 -31 46 -73 46 -121c0 -61 -23 -112 -62 -152c-44 -44 -114 -72 -194 -83l144 -280h-91l-138 272h-190l-73 -272h-79zM201 343h190c92 0 160 25 199 64c27 28 42 61 42 102
c0 30 -10 57 -29 76c-27 27 -71 42 -137 42h-188z" />
    <glyph glyph-name="rcaron" unicode="&#x159;" horiz-adv-x="402" 
d="M448 726l-142 -131h-68l-71 131h62l55 -67l96 67h68zM17 0l138 517h77l-35 -135c63 90 143 150 246 144l-22 -83h-5c-113 0 -226 -83 -267 -239l-55 -204h-77z" />
    <glyph glyph-name="Rcommaaccent" unicode="&#x156;" horiz-adv-x="717" 
d="M173 -238l1 30c46 7 69 25 78 60h-41l22 83h90l-19 -71c-19 -70 -59 -96 -131 -102zM30 0l188 700h252c88 0 154 -22 197 -64c30 -31 46 -73 46 -121c0 -61 -23 -112 -62 -152c-44 -44 -114 -72 -194 -83l144 -280h-91l-138 272h-190l-73 -272h-79zM201 343h190
c92 0 160 25 199 64c27 28 42 61 42 102c0 30 -10 57 -29 76c-27 27 -71 42 -137 42h-188z" />
    <glyph glyph-name="rcommaaccent" unicode="&#x157;" horiz-adv-x="402" 
d="M-53 -243l1 30c46 7 69 25 78 60h-41l22 83h90l-19 -71c-19 -70 -59 -96 -131 -102zM17 0l138 517h77l-35 -135c63 90 143 150 246 144l-22 -83h-5c-113 0 -226 -83 -267 -239l-55 -204h-77z" />
    <glyph glyph-name="Sacute" unicode="&#x15a;" horiz-adv-x="637" 
d="M298 -10c-129 0 -226 50 -286 133l60 47c59 -72 128 -109 231 -109c101 0 177 55 177 131c0 54 -36 86 -144 128c-129 51 -192 96 -192 187c0 116 107 203 258 203c109 0 195 -44 248 -106l-58 -52c-51 56 -115 87 -197 87c-105 0 -168 -59 -168 -123
c0 -57 45 -86 155 -129c120 -46 181 -95 181 -185c0 -123 -116 -212 -265 -212zM403 772l135 129l78 -36l-139 -93h-74z" />
    <glyph glyph-name="sacute" unicode="&#x15b;" horiz-adv-x="496" 
d="M288 595l134 145l80 -37l-142 -108h-72zM217 -11c-80 0 -163 30 -223 90l50 50c56 -54 118 -76 180 -76c59 0 114 34 114 86c0 34 -23 59 -98 88c-93 36 -146 70 -146 142c0 88 76 159 196 159c76 0 148 -34 191 -71l-45 -53c-43 35 -97 60 -153 60
c-73 0 -112 -39 -112 -82c0 -34 21 -56 103 -88c93 -38 141 -75 141 -142c0 -96 -88 -163 -198 -163z" />
    <glyph glyph-name="Scaron" unicode="&#x160;" horiz-adv-x="637" 
d="M298 -10c-129 0 -226 50 -286 133l60 47c59 -72 128 -109 231 -109c101 0 177 55 177 131c0 54 -36 86 -144 128c-129 51 -192 96 -192 187c0 116 107 203 258 203c109 0 195 -44 248 -106l-58 -52c-51 56 -115 87 -197 87c-105 0 -168 -59 -168 -123
c0 -57 45 -86 155 -129c120 -46 181 -95 181 -185c0 -123 -116 -212 -265 -212zM627 890l-141 -118h-73l-78 118h67l58 -60l91 60h76z" />
    <glyph glyph-name="scaron" unicode="&#x161;" horiz-adv-x="496" 
d="M485 726l-142 -131h-68l-71 131h62l55 -67l96 67h68zM217 -11c-80 0 -163 30 -223 90l50 50c56 -54 118 -76 180 -76c59 0 114 34 114 86c0 34 -23 59 -98 88c-93 36 -146 70 -146 142c0 88 76 159 196 159c76 0 148 -34 191 -71l-45 -53c-43 35 -97 60 -153 60
c-73 0 -112 -39 -112 -82c0 -34 21 -56 103 -88c93 -38 141 -75 141 -142c0 -96 -88 -163 -198 -163z" />
    <glyph glyph-name="Scedilla" unicode="&#x15e;" horiz-adv-x="637" 
d="M185 -155l-66 34l111 116c-96 14 -169 60 -218 128l60 47c59 -72 128 -109 231 -109c101 0 177 55 177 131c0 54 -36 86 -144 128c-129 51 -192 96 -192 187c0 116 107 203 258 203c109 0 195 -44 248 -106l-58 -52c-51 56 -115 87 -197 87c-105 0 -168 -59 -168 -123
c0 -57 45 -86 155 -129c120 -46 181 -95 181 -185c0 -123 -116 -212 -265 -212h-8z" />
    <glyph glyph-name="scedilla" unicode="&#x15f;" horiz-adv-x="496" 
d="M109 -155l-66 34l111 116c-59 11 -116 39 -160 84l50 50c56 -54 118 -76 180 -76c59 0 114 34 114 86c0 34 -23 59 -98 88c-93 36 -146 70 -146 142c0 88 76 159 196 159c76 0 148 -34 191 -71l-45 -53c-43 35 -97 60 -153 60c-73 0 -112 -39 -112 -82
c0 -34 21 -56 103 -88c93 -38 141 -75 141 -142c0 -96 -88 -163 -198 -163h-4z" />
    <glyph glyph-name="Scommaaccent" unicode="&#x218;" horiz-adv-x="637" 
d="M124 -244l1 30c46 7 69 25 78 60h-41l22 83h90l-19 -71c-19 -70 -59 -96 -131 -102zM298 -10c-129 0 -226 50 -286 133l60 47c59 -72 128 -109 231 -109c101 0 177 55 177 131c0 54 -36 86 -144 128c-129 51 -192 96 -192 187c0 116 107 203 258 203
c109 0 195 -44 248 -106l-58 -52c-51 56 -115 87 -197 87c-105 0 -168 -59 -168 -123c0 -57 45 -86 155 -129c120 -46 181 -95 181 -185c0 -123 -116 -212 -265 -212z" />
    <glyph glyph-name="scommaaccent" unicode="&#x219;" horiz-adv-x="496" 
d="M54 -243l1 30c46 7 69 25 78 60h-41l22 83h90l-19 -71c-19 -70 -59 -96 -131 -102zM217 -11c-80 0 -163 30 -223 90l50 50c56 -54 118 -76 180 -76c59 0 114 34 114 86c0 34 -23 59 -98 88c-93 36 -146 70 -146 142c0 88 76 159 196 159c76 0 148 -34 191 -71l-45 -53
c-43 35 -97 60 -153 60c-73 0 -112 -39 -112 -82c0 -34 21 -56 103 -88c93 -38 141 -75 141 -142c0 -96 -88 -163 -198 -163z" />
    <glyph glyph-name="Tcaron" unicode="&#x164;" horiz-adv-x="616" 
d="M624 880l-141 -118h-73l-78 118h67l58 -60l91 60h76zM196 0l168 627h-236l20 73h551l-20 -73h-236l-168 -627h-79z" />
    <glyph glyph-name="tcaron" unicode="&#x165;" horiz-adv-x="401" 
d="M358 588l55 165h77v-3l-95 -162h-37zM202 -9c-74 0 -126 35 -126 102c0 18 3 38 7 54l81 302h-71l18 68h72l42 156h76l-42 -156h163l-18 -68h-163l-80 -298c-2 -12 -4 -27 -4 -38c0 -36 27 -53 71 -53c23 0 47 5 75 16l-19 -70c-27 -11 -52 -15 -82 -15z" />
    <glyph glyph-name="Tcommaaccent" unicode="&#x162;" horiz-adv-x="616" 
d="M119 -243l1 30c46 7 69 25 78 60h-41l22 83h90l-19 -71c-19 -70 -59 -96 -131 -102zM196 0l168 627h-236l20 73h551l-20 -73h-236l-168 -627h-79z" />
    <glyph glyph-name="tcommaaccent" unicode="&#x163;" horiz-adv-x="401" 
d="M44 -243l1 30c46 7 69 25 78 60h-41l22 83h90l-19 -71c-19 -70 -59 -96 -131 -102zM202 -9c-74 0 -126 35 -126 102c0 18 3 38 7 54l81 302h-71l18 68h72l42 156h76l-42 -156h163l-18 -68h-163l-80 -298c-2 -12 -4 -27 -4 -38c0 -36 27 -53 71 -53c23 0 47 5 75 16
l-19 -70c-27 -11 -52 -15 -82 -15z" />
    <glyph glyph-name="Thorn" unicode="&#xde;" horiz-adv-x="674" 
d="M265 580h140c88 0 156 -20 200 -65c32 -33 50 -76 50 -130c0 -163 -139 -256 -345 -256h-166l-35 -129h-79l188 700h78zM402 507h-157l-82 -308h151c165 0 259 66 259 181c0 34 -10 61 -32 83c-29 29 -76 44 -139 44z" />
    <glyph glyph-name="thorn" unicode="&#xfe;" horiz-adv-x="659" 
d="M-26 -160l239 890h77l-82 -302c50 57 113 100 196 100c117 0 205 -87 205 -219c0 -183 -139 -321 -290 -321c-106 0 -165 60 -194 128l-74 -276h-77zM312 56c123 0 216 114 216 246c0 96 -59 158 -146 158c-115 0 -230 -117 -230 -243c0 -90 65 -161 160 -161z" />
    <glyph glyph-name="Uacute" unicode="&#xda;" horiz-adv-x="758" 
d="M463 759l135 129l78 -36l-139 -93h-74zM347 -11c-167 0 -255 93 -255 224c0 38 5 73 15 109l100 378h80l-106 -399c-6 -21 -10 -49 -10 -79c0 -91 59 -160 183 -160c58 0 112 21 156 64c36 37 69 94 89 171l109 403h79l-112 -417c-24 -89 -61 -158 -110 -207
c-57 -57 -131 -87 -218 -87z" />
    <glyph glyph-name="uacute" unicode="&#xfa;" horiz-adv-x="613" 
d="M347 595l134 145l80 -37l-142 -108h-72zM222 -11c-99 0 -164 62 -164 160c0 24 6 53 13 80l76 288h77l-79 -293c-4 -17 -7 -41 -7 -58c0 -68 44 -108 115 -108c80 0 161 69 187 168l78 291h77l-138 -517h-77l23 84c-47 -53 -102 -95 -181 -95z" />
    <glyph glyph-name="Ubreve" unicode="&#x16c;" horiz-adv-x="758" 
d="M505 754c-83 0 -131 42 -118 114h56c2 -33 22 -52 75 -52c50 0 82 20 102 52h63c-25 -72 -96 -114 -178 -114zM347 -11c-167 0 -255 93 -255 224c0 38 5 73 15 109l100 378h80l-106 -399c-6 -21 -10 -49 -10 -79c0 -91 59 -160 183 -160c58 0 112 21 156 64
c36 37 69 94 89 171l109 403h79l-112 -417c-24 -89 -61 -158 -110 -207c-57 -57 -131 -87 -218 -87z" />
    <glyph glyph-name="ubreve" unicode="&#x16d;" horiz-adv-x="613" 
d="M222 -11c-99 0 -164 62 -164 160c0 24 6 53 13 80l76 288h77l-79 -293c-4 -17 -7 -41 -7 -58c0 -68 44 -108 115 -108c80 0 161 69 187 168l78 291h77l-138 -517h-77l23 84c-47 -53 -102 -95 -181 -95zM392 593c-88 0 -131 51 -121 125h56c0 -38 20 -63 73 -63
c54 0 86 27 108 63h60c-26 -76 -93 -125 -176 -125z" />
    <glyph glyph-name="Ucircumflex" unicode="&#xdb;" horiz-adv-x="758" 
d="M347 -11c-167 0 -255 93 -255 224c0 38 5 73 15 109l100 378h80l-106 -399c-6 -21 -10 -49 -10 -79c0 -91 59 -160 183 -160c58 0 112 21 156 64c36 37 69 94 89 171l109 403h79l-112 -417c-24 -89 -61 -158 -110 -207c-57 -57 -131 -87 -218 -87zM350 759l142 118h72
l78 -118h-67l-58 60l-91 -60h-76z" />
    <glyph glyph-name="ucircumflex" unicode="&#xfb;" horiz-adv-x="613" 
d="M241 595l141 131h68l71 -131h-62l-54 67l-96 -67h-68zM222 -11c-99 0 -164 62 -164 160c0 24 6 53 13 80l76 288h77l-79 -293c-4 -17 -7 -41 -7 -58c0 -68 44 -108 115 -108c80 0 161 69 187 168l78 291h77l-138 -517h-77l23 84c-47 -53 -102 -95 -181 -95z" />
    <glyph glyph-name="Udieresis" unicode="&#xdc;" horiz-adv-x="758" 
d="M551 759l25 90h93l-25 -90h-93zM364 759l25 90h93l-24 -90h-94zM347 -11c-167 0 -255 93 -255 224c0 38 5 73 15 109l100 378h80l-106 -399c-6 -21 -10 -49 -10 -79c0 -91 59 -160 183 -160c58 0 112 21 156 64c36 37 69 94 89 171l109 403h79l-112 -417
c-24 -89 -61 -158 -110 -207c-57 -57 -131 -87 -218 -87z" />
    <glyph glyph-name="udieresis" unicode="&#xfc;" horiz-adv-x="613" 
d="M430 595l26 95h89l-26 -95h-89zM253 595l26 95h90l-26 -95h-90zM222 -11c-99 0 -164 62 -164 160c0 24 6 53 13 80l76 288h77l-79 -293c-4 -17 -7 -41 -7 -58c0 -68 44 -108 115 -108c80 0 161 69 187 168l78 291h77l-138 -517h-77l23 84c-47 -53 -102 -95 -181 -95z" />
    <glyph glyph-name="Ugrave" unicode="&#xd9;" horiz-adv-x="758" 
d="M452 888l66 -129h-55l-90 93zM347 -11c-167 0 -255 93 -255 224c0 38 5 73 15 109l100 378h80l-106 -399c-6 -21 -10 -49 -10 -79c0 -91 59 -160 183 -160c58 0 112 21 156 64c36 37 69 94 89 171l109 403h79l-112 -417c-24 -89 -61 -158 -110 -207
c-57 -57 -131 -87 -218 -87z" />
    <glyph glyph-name="ugrave" unicode="&#xf9;" horiz-adv-x="613" 
d="M222 -11c-99 0 -164 62 -164 160c0 24 6 53 13 80l76 288h77l-79 -293c-4 -17 -7 -41 -7 -58c0 -68 44 -108 115 -108c80 0 161 69 187 168l78 291h77l-138 -517h-77l23 84c-47 -53 -102 -95 -181 -95zM350 595l-83 108l81 37l56 -145h-54z" />
    <glyph glyph-name="Uhungarumlaut" unicode="&#x170;" horiz-adv-x="758" 
d="M347 -11c-167 0 -255 93 -255 224c0 38 5 73 15 109l100 378h80l-106 -399c-6 -21 -10 -49 -10 -79c0 -91 59 -160 183 -160c58 0 112 21 156 64c36 37 69 94 89 171l109 403h79l-112 -417c-24 -89 -61 -158 -110 -207c-57 -57 -131 -87 -218 -87zM370 759l135 129
l77 -36l-140 -93h-72zM525 759l135 129l77 -36l-140 -93h-72z" />
    <glyph glyph-name="uhungarumlaut" unicode="&#x171;" horiz-adv-x="613" 
d="M222 -11c-99 0 -164 62 -164 160c0 24 6 53 13 80l76 288h77l-79 -293c-4 -17 -7 -41 -7 -58c0 -68 44 -108 115 -108c80 0 161 69 187 168l78 291h77l-138 -517h-77l23 84c-47 -53 -102 -95 -181 -95zM411 595l135 145l65 -37l-139 -108h-61zM247 595l135 145l64 -37
l-137 -108h-62z" />
    <glyph glyph-name="Umacron" unicode="&#x16a;" horiz-adv-x="758" 
d="M345 780l17 64h329l-17 -64h-329zM347 -11c-167 0 -255 93 -255 224c0 38 5 73 15 109l100 378h80l-106 -399c-6 -21 -10 -49 -10 -79c0 -91 59 -160 183 -160c58 0 112 21 156 64c36 37 69 94 89 171l109 403h79l-112 -417c-24 -89 -61 -158 -110 -207
c-57 -57 -131 -87 -218 -87z" />
    <glyph glyph-name="umacron" unicode="&#x16b;" horiz-adv-x="613" 
d="M222 -11c-99 0 -164 62 -164 160c0 24 6 53 13 80l76 288h77l-79 -293c-4 -17 -7 -41 -7 -58c0 -68 44 -108 115 -108c80 0 161 69 187 168l78 291h77l-138 -517h-77l23 84c-47 -53 -102 -95 -181 -95zM232 615l17 63h319l-17 -63h-319z" />
    <glyph glyph-name="Uogonek" unicode="&#x172;" horiz-adv-x="758" 
d="M347 -11h-3c-38 -29 -56 -52 -56 -73c0 -22 19 -31 64 -36l-11 -44c-5 -1 -9 -1 -14 -1c-71 4 -108 25 -108 66c0 34 26 64 64 93c-125 21 -191 106 -191 219c0 38 5 73 15 109l100 378h80l-106 -399c-6 -21 -10 -49 -10 -79c0 -91 59 -160 183 -160c58 0 112 21 156 64
c36 37 69 94 89 171l109 403h79l-112 -417c-24 -89 -61 -158 -110 -207c-57 -57 -131 -87 -218 -87z" />
    <glyph glyph-name="uogonek" unicode="&#x173;" horiz-adv-x="613" 
d="M222 -11c-99 0 -164 62 -164 160c0 24 6 53 13 80l76 288h77l-79 -293c-4 -17 -7 -41 -7 -58c0 -68 44 -108 115 -108c80 0 161 69 187 168l78 291h77l-138 -517h-8c-47 -34 -71 -60 -71 -84c0 -22 19 -31 64 -36l-11 -44c-5 -1 -9 -1 -14 -1c-71 4 -108 25 -108 66
c0 37 30 69 72 99h-1l23 84c-47 -53 -102 -95 -181 -95z" />
    <glyph glyph-name="Uring" unicode="&#x16e;" horiz-adv-x="758" 
d="M347 -11c-167 0 -255 93 -255 224c0 38 5 73 15 109l100 378h80l-106 -399c-6 -21 -10 -49 -10 -79c0 -91 59 -160 183 -160c58 0 112 21 156 64c36 37 69 94 89 171l109 403h79l-112 -417c-24 -89 -61 -158 -110 -207c-57 -57 -131 -87 -218 -87zM514 743
c-57 0 -99 37 -99 87c0 63 56 111 125 111c58 0 99 -37 99 -86c0 -63 -56 -112 -125 -112zM518 781c41 0 76 31 76 70c0 30 -21 53 -58 53c-41 0 -76 -31 -76 -70c0 -33 24 -53 58 -53z" />
    <glyph glyph-name="uring" unicode="&#x16f;" horiz-adv-x="613" 
d="M402 586c-61 0 -103 41 -103 95c0 61 56 114 121 114c61 0 103 -41 103 -95c0 -61 -56 -114 -121 -114zM403 623c42 0 78 35 78 75c0 35 -24 60 -62 60c-43 0 -78 -35 -78 -75c0 -34 24 -60 62 -60zM222 -11c-99 0 -164 62 -164 160c0 24 6 53 13 80l76 288h77l-79 -293
c-4 -17 -7 -41 -7 -58c0 -68 44 -108 115 -108c80 0 161 69 187 168l78 291h77l-138 -517h-77l23 84c-47 -53 -102 -95 -181 -95z" />
    <glyph glyph-name="Wacute" unicode="&#x1e82;" horiz-adv-x="1083" 
d="M626 762l135 129l78 -36l-139 -93h-74zM206 -5l-61 705h82l44 -583l347 585h65l37 -585l356 583h89l-439 -705h-69l-40 565l-343 -565h-68z" />
    <glyph glyph-name="wacute" unicode="&#x1e83;" horiz-adv-x="848" 
d="M465 595l134 145l80 -37l-142 -108h-72zM137 -4l-41 521h78l27 -412l250 414h64l29 -414l249 412h80l-322 -521h-68l-30 408l-249 -408h-67z" />
    <glyph glyph-name="Wcircumflex" unicode="&#x174;" horiz-adv-x="1083" 
d="M206 -5l-61 705h82l44 -583l347 585h65l37 -585l356 583h89l-439 -705h-69l-40 565l-343 -565h-68zM511 762l142 118h72l78 -118h-67l-58 60l-91 -60h-76z" />
    <glyph glyph-name="wcircumflex" unicode="&#x175;" horiz-adv-x="848" 
d="M359 595l141 131h68l71 -131h-62l-54 67l-96 -67h-68zM137 -4l-41 521h78l27 -412l250 414h64l29 -414l249 412h80l-322 -521h-68l-30 408l-249 -408h-67z" />
    <glyph glyph-name="Wdieresis" unicode="&#x1e84;" horiz-adv-x="1083" 
d="M712 762l25 90h93l-25 -90h-93zM525 762l25 90h93l-24 -90h-94zM206 -5l-61 705h82l44 -583l347 585h65l37 -585l356 583h89l-439 -705h-69l-40 565l-343 -565h-68z" />
    <glyph glyph-name="wdieresis" unicode="&#x1e85;" horiz-adv-x="848" 
d="M548 595l26 95h89l-26 -95h-89zM371 595l26 95h90l-26 -95h-90zM137 -4l-41 521h78l27 -412l250 414h64l29 -414l249 412h80l-322 -521h-68l-30 408l-249 -408h-67z" />
    <glyph glyph-name="Wgrave" unicode="&#x1e80;" horiz-adv-x="1083" 
d="M614 891l66 -129h-55l-90 93zM206 -5l-61 705h82l44 -583l347 585h65l37 -585l356 583h89l-439 -705h-69l-40 565l-343 -565h-68z" />
    <glyph glyph-name="wgrave" unicode="&#x1e81;" horiz-adv-x="848" 
d="M137 -4l-41 521h78l27 -412l250 414h64l29 -414l249 412h80l-322 -521h-68l-30 408l-249 -408h-67zM467 595l-83 108l81 37l56 -145h-54z" />
    <glyph glyph-name="Yacute" unicode="&#xdd;" horiz-adv-x="663" 
d="M216 0l76 282l-173 418h88l140 -353l330 353h101l-410 -431l-72 -269h-80zM411 759l135 129l78 -36l-139 -93h-74z" />
    <glyph glyph-name="yacute" unicode="&#xfd;" horiz-adv-x="574" 
d="M38 -163c-44 0 -80 13 -113 36l42 58c19 -15 54 -26 79 -26c44 0 83 23 135 96l-94 516h80l72 -431l278 431h87l-354 -534c-73 -107 -135 -146 -212 -146zM315 595l134 145l80 -37l-142 -108h-72z" />
    <glyph glyph-name="Ycircumflex" unicode="&#x176;" horiz-adv-x="663" 
d="M216 0l76 282l-173 418h88l140 -353l330 353h101l-410 -431l-72 -269h-80zM297 759l142 118h72l78 -118h-67l-58 60l-91 -60h-76z" />
    <glyph glyph-name="ycircumflex" unicode="&#x177;" horiz-adv-x="574" 
d="M38 -163c-44 0 -80 13 -113 36l42 58c19 -15 54 -26 79 -26c44 0 83 23 135 96l-94 516h80l72 -431l278 431h87l-354 -534c-73 -107 -135 -146 -212 -146zM208 595l141 131h68l71 -131h-62l-54 67l-96 -67h-68z" />
    <glyph glyph-name="Ydieresis" unicode="&#x178;" horiz-adv-x="663" 
d="M216 0l76 282l-173 418h88l140 -353l330 353h101l-410 -431l-72 -269h-80zM497 759l25 90h93l-25 -90h-93zM310 759l25 90h93l-24 -90h-94z" />
    <glyph glyph-name="ydieresis" unicode="&#xff;" horiz-adv-x="574" 
d="M38 -163c-44 0 -80 13 -113 36l42 58c19 -15 54 -26 79 -26c44 0 83 23 135 96l-94 516h80l72 -431l278 431h87l-354 -534c-73 -107 -135 -146 -212 -146zM397 595l26 95h89l-26 -95h-89zM220 595l26 95h90l-26 -95h-90z" />
    <glyph glyph-name="Ygrave" unicode="&#x1ef2;" horiz-adv-x="663" 
d="M216 0l76 282l-173 418h88l140 -353l330 353h101l-410 -431l-72 -269h-80zM399 888l66 -129h-55l-90 93z" />
    <glyph glyph-name="ygrave" unicode="&#x1ef3;" horiz-adv-x="574" 
d="M38 -163c-44 0 -80 13 -113 36l42 58c19 -15 54 -26 79 -26c44 0 83 23 135 96l-94 516h80l72 -431l278 431h87l-354 -534c-73 -107 -135 -146 -212 -146zM318 595l-83 108l81 37l56 -145h-54z" />
    <glyph glyph-name="Zacute" unicode="&#x179;" horiz-adv-x="669" 
d="M-19 0l14 53l597 576h-427l20 71h542l-14 -53l-598 -576h446l-19 -71h-561zM408 762l135 129l78 -36l-139 -93h-74z" />
    <glyph glyph-name="zacute" unicode="&#x17a;" horiz-adv-x="549" 
d="M307 595l134 145l80 -37l-142 -108h-72zM-20 0l14 49l441 403h-321l18 65h432l-14 -49l-442 -403h338l-18 -65h-448z" />
    <glyph glyph-name="Zcaron" unicode="&#x17d;" horiz-adv-x="669" 
d="M633 880l-141 -118h-73l-78 118h67l58 -60l91 60h76zM-19 0l14 53l597 576h-427l20 71h542l-14 -53l-598 -576h446l-19 -71h-561z" />
    <glyph glyph-name="zcaron" unicode="&#x17e;" horiz-adv-x="549" 
d="M504 726l-142 -131h-68l-71 131h62l55 -67l96 67h68zM-20 0l14 49l441 403h-321l18 65h432l-14 -49l-442 -403h338l-18 -65h-448z" />
    <glyph glyph-name="Zdotaccent" unicode="&#x17b;" horiz-adv-x="669" 
d="M400 762l25 90h96l-25 -90h-96zM-19 0l14 53l597 576h-427l20 71h542l-14 -53l-598 -576h446l-19 -71h-561z" />
    <glyph glyph-name="zdotaccent" unicode="&#x17c;" horiz-adv-x="549" 
d="M-20 0l14 49l441 403h-321l18 65h432l-14 -49l-442 -403h338l-18 -65h-448zM301 594l27 98h89l-27 -98h-89z" />
    <glyph glyph-name="schwa" unicode="&#x259;" horiz-adv-x="589" 
d="M463 288c1 6 1 12 1 18c0 94 -60 156 -156 156c-67 0 -112 -23 -159 -61l-40 51c51 43 112 77 203 77c137 0 229 -89 229 -220c0 -158 -128 -320 -301 -320c-131 0 -200 90 -200 198c0 35 7 69 19 101h404zM452 226h-333c-2 -10 -4 -22 -4 -39c0 -71 40 -133 129 -133
c102 0 179 77 208 172z" />
    <glyph glyph-name="germandbls" unicode="&#xdf;" horiz-adv-x="623" 
d="M222 -2l17 64c168 0 235 69 235 145c0 66 -56 108 -163 125l16 60c141 33 200 92 200 171c0 62 -47 106 -123 106c-86 0 -149 -68 -179 -181l-131 -488h-77l135 501c18 69 47 127 87 166c44 45 104 70 170 70c116 0 195 -72 195 -169c0 -113 -87 -174 -196 -205
c79 -23 144 -71 144 -157c0 -120 -116 -211 -330 -208z" />
    <glyph glyph-name="zero" unicode="0" horiz-adv-x="715" 
d="M322 -12c-157 0 -245 113 -245 270c0 221 149 454 364 454c156 0 245 -113 245 -270c0 -221 -149 -454 -364 -454zM327 60c154 0 277 198 277 382c0 114 -59 198 -169 198c-153 0 -276 -198 -276 -382c0 -114 58 -198 168 -198z" />
    <glyph glyph-name="one" unicode="1" horiz-adv-x="361" 
d="M94 0l165 617l-142 -41l-2 69l188 60h59l-189 -705h-79z" />
    <glyph glyph-name="two" unicode="2" horiz-adv-x="595" 
d="M-22 0l16 62l401 304c77 58 117 105 117 165c0 62 -49 107 -133 107c-78 0 -140 -43 -192 -96l-52 50c63 67 142 118 247 118c126 0 212 -71 212 -174c0 -84 -51 -145 -150 -219l-323 -245h374l-19 -72h-498z" />
    <glyph glyph-name="three" unicode="3" horiz-adv-x="605" 
d="M248 -12c-122 0 -204 54 -245 136l62 40c37 -65 94 -104 187 -104c110 0 193 66 193 155c0 80 -71 119 -181 119h-32l-10 45l283 250h-345l20 71h456l-16 -58l-285 -249c105 -9 192 -65 192 -172c0 -135 -127 -233 -279 -233z" />
    <glyph glyph-name="three.alt" horiz-adv-x="606" 
d="M259 -12c-128 0 -213 57 -257 128l63 43c40 -58 99 -99 199 -99c110 0 182 63 182 137c0 85 -80 122 -188 122h-43l18 68h51c140 0 229 52 229 139c0 70 -62 113 -144 113c-76 0 -129 -27 -181 -70l-46 52c57 50 129 90 232 90c125 0 222 -68 222 -176
c0 -100 -75 -162 -196 -185c68 -22 128 -71 128 -153c0 -118 -115 -209 -269 -209z" />
    <glyph glyph-name="four" unicode="4" horiz-adv-x="649" 
d="M354 0l45 166h-364l-10 59l519 480h76l-127 -473h109l-18 -66h-109l-44 -166h-77zM129 232h288l96 357z" />
    <glyph glyph-name="five" unicode="5" horiz-adv-x="603" 
d="M251 -12c-114 0 -196 56 -242 125l61 45c45 -62 103 -99 187 -99c123 0 203 82 203 172c0 84 -64 134 -157 134c-43 0 -95 -12 -143 -38l-45 36l110 337h391l-21 -73h-319l-74 -220c29 14 83 27 120 27c133 0 221 -76 221 -197c0 -133 -116 -249 -292 -249z" />
    <glyph glyph-name="six" unicode="6" horiz-adv-x="641" 
d="M316 -12c-70 0 -131 24 -170 64c-44 44 -69 105 -69 194c0 149 56 282 139 365c65 65 142 101 232 101c92 0 159 -36 207 -90l-52 -54c-39 42 -91 72 -161 72c-63 0 -119 -24 -169 -74c-54 -54 -99 -142 -108 -228c39 54 110 102 202 102c136 0 221 -89 221 -201
c0 -133 -116 -251 -272 -251zM318 57c111 0 189 83 189 176c0 70 -51 139 -155 139c-116 0 -193 -83 -193 -168c0 -44 15 -78 41 -103c30 -31 71 -44 118 -44z" />
    <glyph glyph-name="seven" unicode="7" horiz-adv-x="586" 
d="M61 0l461 628h-381l20 72h475l-17 -59l-466 -641h-92z" />
    <glyph glyph-name="eight" unicode="8" horiz-adv-x="647" 
d="M296 -10c-151 0 -258 82 -258 187c0 111 90 176 204 196c-57 23 -101 76 -101 145c0 105 104 192 253 192c138 0 236 -75 236 -181c0 -96 -76 -161 -173 -181c62 -22 119 -77 119 -155c0 -114 -116 -203 -280 -203zM376 390c114 0 176 65 176 131c0 70 -63 121 -160 121
c-103 0 -173 -57 -173 -131c0 -68 63 -121 157 -121zM301 58c116 0 194 57 195 139c0 68 -70 128 -182 128c-121 0 -196 -65 -196 -140c-1 -74 72 -127 183 -127z" />
    <glyph glyph-name="nine" unicode="9" horiz-adv-x="641" 
d="M243 -13c-88 0 -162 38 -215 97l52 54c45 -49 97 -79 167 -79c63 0 118 24 169 75c55 54 98 139 107 223c-36 -51 -105 -106 -203 -106c-136 0 -221 91 -221 205c1 138 118 255 274 255c68 0 130 -24 170 -63c44 -45 69 -105 69 -199c0 -147 -57 -278 -140 -361
c-66 -65 -141 -101 -229 -101zM338 320c113 0 191 86 191 176c0 41 -14 76 -40 102c-31 31 -71 45 -118 45c-112 0 -190 -85 -190 -181c-1 -73 50 -142 157 -142z" />
    <glyph glyph-name="period" unicode="." horiz-adv-x="255" 
d="M12 0l29 105h91l-28 -105h-92z" />
    <glyph glyph-name="comma" unicode="," horiz-adv-x="255" 
d="M-37 -121l-8 34c58 15 86 44 94 87h-37l29 105h91l-24 -90c-24 -87 -65 -121 -145 -136z" />
    <glyph glyph-name="colon" unicode=":" horiz-adv-x="262" 
d="M126 412l29 105h92l-29 -105h-92zM16 0l28 105h92l-28 -105h-92z" />
    <glyph glyph-name="semicolon" unicode=";" horiz-adv-x="262" 
d="M126 412l29 105h92l-29 -105h-92zM-33 -121l-8 34c58 15 85 44 93 87h-36l28 105h92l-24 -90c-24 -87 -65 -121 -145 -136z" />
    <glyph glyph-name="ellipsis" unicode="&#x2026;" horiz-adv-x="734" 
d="M493 0l28 104h91l-28 -104h-91zM252 0l29 104h90l-28 -104h-91zM12 0l28 104h91l-28 -104h-91z" />
    <glyph glyph-name="periodcentered" unicode="&#xb7;" horiz-adv-x="255" 
d="M77 248l29 105h91l-28 -105h-92z" />
    <glyph glyph-name="bullet" unicode="&#x2022;" horiz-adv-x="478" 
d="M236 216c-64 0 -108 43 -108 111c0 84 66 161 150 161c64 0 108 -43 108 -110c0 -84 -67 -162 -150 -162z" />
    <glyph glyph-name="ampersand" unicode="&#x26;" horiz-adv-x="692" 
d="M557 -14l-78 109c-74 -69 -146 -105 -244 -105c-116 0 -206 66 -206 179c0 104 76 189 232 232c-26 44 -44 87 -44 130c0 101 85 181 194 181c104 0 172 -62 172 -151c0 -73 -49 -145 -216 -193l125 -175c37 41 74 93 108 152l53 -34c-40 -66 -80 -122 -122 -168l85 -119
zM332 418c138 38 177 88 177 139c0 52 -39 90 -101 90c-65 0 -117 -52 -117 -116c0 -36 11 -68 41 -113zM244 58c71 0 134 30 197 88l-145 204c-132 -34 -189 -102 -189 -175c0 -71 52 -117 137 -117z" />
    <glyph glyph-name="exclam" unicode="!" horiz-adv-x="271" 
d="M97 198l96 445l16 57h90l-15 -57l-143 -445h-44zM20 0l28 105h92l-28 -105h-92z" />
    <glyph glyph-name="exclamdown" unicode="&#xa1;" horiz-adv-x="271" 
d="M180 595l28 105h92l-29 -105h-91zM21 0l15 57l143 445h43l-95 -445l-16 -57h-90z" />
    <glyph glyph-name="question" unicode="?" horiz-adv-x="537" 
d="M189 198l28 162l6 5c142 10 237 67 237 161c0 72 -57 111 -133 111c-73 0 -138 -37 -182 -80l-45 52c57 57 137 100 235 100c129 0 207 -78 207 -177c0 -129 -113 -202 -262 -224l-40 -110h-51zM117 0l28 105h92l-28 -105h-92z" />
    <glyph glyph-name="questiondown" unicode="&#xbf;" horiz-adv-x="537" 
d="M349 595l28 105h92l-28 -105h-92zM251 -9c-129 0 -207 78 -207 177c0 129 113 202 262 224l40 110h50l-27 -162l-7 -5c-141 -10 -236 -67 -236 -161c0 -72 57 -111 133 -111c72 0 137 37 182 80l45 -52c-57 -57 -137 -100 -235 -100z" />
    <glyph glyph-name="quotedblleft" unicode="&#x201c;" horiz-adv-x="455" 
d="M332 478l24 90c24 87 65 122 145 136l8 -34c-58 -15 -85 -44 -93 -87h36l-28 -105h-92zM132 478l24 90c24 87 65 122 146 136l7 -34c-58 -15 -85 -44 -93 -87h36l-28 -105h-92z" />
    <glyph glyph-name="quotedblright" unicode="&#x201d;" horiz-adv-x="455" 
d="M316 474l-7 34c58 14 85 44 93 87h-36l28 105h92l-24 -90c-24 -87 -65 -122 -146 -136zM116 474l-7 34c58 14 85 44 93 87h-36l28 105h92l-24 -90c-24 -87 -65 -122 -146 -136z" />
    <glyph glyph-name="quoteleft" unicode="&#x2018;" horiz-adv-x="255" 
d="M132 478l25 91c23 86 65 121 145 136l8 -35c-58 -14 -86 -43 -94 -87h37l-29 -105h-92z" />
    <glyph glyph-name="quoteright" unicode="&#x2019;" horiz-adv-x="255" 
d="M124 474l-8 34c58 14 86 44 94 87h-37l29 105h92l-25 -90c-24 -87 -64 -122 -145 -136z" />
    <glyph glyph-name="quotedblbase" unicode="&#x201e;" horiz-adv-x="455" 
d="M164 -121l-8 34c58 15 85 44 93 87h-36l28 105h92l-24 -90c-24 -87 -65 -121 -145 -136zM-37 -121l-8 34c58 15 86 44 94 87h-37l29 105h91l-24 -90c-24 -87 -65 -121 -145 -136z" />
    <glyph glyph-name="quotesinglbase" unicode="&#x201a;" horiz-adv-x="255" 
d="M-37 -121l-8 34c58 15 86 44 94 87h-37l29 105h91l-24 -90c-24 -87 -65 -121 -145 -136z" />
    <glyph glyph-name="guillemotleft" unicode="&#xab;" horiz-adv-x="550" 
d="M372 39l-105 213l2 8l222 216l50 -42l-188 -187l82 -177zM150 39l-105 213l2 8l222 216l50 -42l-188 -187l82 -177z" />
    <glyph glyph-name="guillemotright" unicode="&#xbb;" horiz-adv-x="550" 
d="M279 38l-49 42l187 187l-82 177l63 31l105 -213l-2 -8zM58 38l-50 42l187 187l-82 177l63 31l105 -213l-2 -8z" />
    <glyph glyph-name="guilsinglleft" unicode="&#x2039;" horiz-adv-x="328" 
d="M150 39l-105 213l2 8l222 216l50 -42l-188 -187l82 -177z" />
    <glyph glyph-name="guilsinglright" unicode="&#x203a;" horiz-adv-x="328" 
d="M58 38l-50 42l187 187l-82 177l63 31l105 -213l-2 -8z" />
    <glyph glyph-name="hyphen" unicode="-" horiz-adv-x="410" 
d="M66 260l21 81h279l-21 -81h-279z" />
    <glyph glyph-name="endash" unicode="&#x2013;" horiz-adv-x="529" 
d="M66 262l20 77h399l-20 -77h-399z" />
    <glyph glyph-name="emdash" unicode="&#x2014;" horiz-adv-x="899" 
d="M66 262l20 77h769l-20 -77h-769z" />
    <glyph glyph-name="underscore" unicode="_" horiz-adv-x="600" 
d="M-114 -160l17 63h605l-18 -63h-604z" />
    <glyph glyph-name="slash" unicode="/" horiz-adv-x="508" 
d="M-125 -128l707 926h78l-707 -926h-78z" />
    <glyph glyph-name="backslash" unicode="\" horiz-adv-x="508" 
d="M357 -128l-218 926h66l218 -926h-66z" />
    <glyph glyph-name="bar" unicode="|" horiz-adv-x="303" 
d="M139 -128v926h64v-926h-64z" />
    <glyph glyph-name="parenleft" unicode="(" horiz-adv-x="434" 
d="M264 -141c-98 85 -176 202 -176 357c0 201 128 393 396 501l27 -57c-244 -106 -344 -278 -344 -442c0 -137 65 -230 143 -311z" />
    <glyph glyph-name="parenright" unicode=")" horiz-adv-x="434" 
d="M-34 -139l-27 58c244 106 343 278 343 442c0 136 -64 229 -143 311l47 47c98 -85 176 -201 176 -356c0 -201 -128 -394 -396 -502z" />
    <glyph glyph-name="bracketleft" unicode="[" horiz-adv-x="439" 
d="M9 -130l223 830h286l-16 -60h-214l-190 -710h213l-16 -60h-286z" />
    <glyph glyph-name="bracketright" unicode="]" horiz-adv-x="439" 
d="M-66 -130l17 60h214l190 710h-214l16 60h287l-223 -830h-287z" />
    <glyph glyph-name="braceleft" unicode="{" horiz-adv-x="483" 
d="M311 -141c-121 25 -166 89 -166 163c0 31 6 56 23 111c7 22 10 43 10 59c0 41 -20 65 -91 65h-28l16 60h28c102 0 137 44 161 175c24 137 88 214 274 223l1 -55c-142 -9 -186 -70 -204 -181c-24 -140 -66 -183 -156 -197c49 -12 73 -41 73 -84c0 -19 -4 -42 -11 -63
c-10 -30 -21 -72 -21 -103c0 -59 28 -100 115 -125z" />
    <glyph glyph-name="braceright" unicode="}" horiz-adv-x="483" 
d="M-40 -141l-1 55c142 9 185 70 204 181c24 140 66 183 156 197c-49 12 -74 41 -74 84c0 19 5 42 12 63c9 30 21 72 21 103c0 59 -28 100 -115 125l24 48c121 -25 165 -89 165 -163c0 -31 -6 -56 -22 -111c-7 -22 -11 -43 -11 -59c0 -41 21 -65 92 -65h27l-15 -60h-28
c-102 0 -137 -44 -162 -175c-24 -137 -87 -214 -273 -223z" />
    <glyph glyph-name="at" unicode="@" horiz-adv-x="980" 
d="M482 -159c-252 0 -419 157 -419 391c0 257 219 481 490 481c249 0 395 -158 395 -351c0 -195 -118 -291 -215 -291c-70 0 -113 36 -125 94c-50 -61 -109 -96 -179 -96c-88 0 -159 62 -159 167c0 150 124 268 246 268c80 0 126 -46 147 -98l27 88l65 -17l-76 -244
c-22 -70 2 -122 66 -122c68 0 166 81 166 251c0 175 -134 317 -358 317c-250 0 -453 -209 -453 -447c0 -213 152 -357 382 -357c75 0 139 14 206 45l15 -31c-72 -33 -140 -48 -221 -48zM449 131c92 0 188 93 188 194c0 68 -46 117 -117 117c-94 0 -174 -91 -174 -200
c0 -70 43 -111 103 -111z" />
    <glyph glyph-name="copyright" unicode="&#xa9;" horiz-adv-x="830" 
d="M438 -12c-203 0 -361 163 -361 361s160 363 363 363s361 -163 361 -361s-160 -363 -363 -363zM438 19c188 0 330 150 330 332s-141 330 -328 330c-188 0 -330 -150 -330 -332s141 -330 328 -330zM443 163c-106 0 -186 86 -186 192c0 105 79 192 187 192
c68 0 108 -25 144 -60l-36 -40c-29 28 -64 50 -108 50c-77 0 -131 -64 -131 -141c0 -78 58 -142 131 -142c48 0 77 19 111 50l36 -35c-40 -40 -81 -66 -148 -66z" />
    <glyph glyph-name="published" unicode="&#x2117;" horiz-adv-x="830" 
d="M438 -12c-203 0 -361 163 -361 361s160 363 363 363s361 -163 361 -361s-160 -363 -363 -363zM438 19c188 0 330 150 330 332s-141 330 -328 330c-188 0 -330 -150 -330 -332s141 -330 328 -330zM316 172v371h146c87 0 144 -44 144 -121c0 -84 -71 -125 -152 -125h-83
v-125h-55zM371 347h85c57 0 94 27 94 74c0 49 -36 72 -93 72h-86v-146z" />
    <glyph glyph-name="registered.alt" horiz-adv-x="830" 
d="M438 -12c-203 0 -361 163 -361 360v2c0 197 160 362 363 362s361 -163 361 -360v-2c0 -197 -160 -362 -363 -362zM438 19c188 0 330 150 330 331v2c0 181 -141 329 -328 329c-188 0 -330 -150 -330 -331v-2c0 -181 141 -329 328 -329zM297 175v371h166
c47 0 86 -15 110 -39c18 -17 29 -42 29 -72v-2c0 -60 -39 -96 -95 -109l114 -149h-67l-107 140h-95v-140h-55zM352 364h106c51 0 88 24 88 66v2c0 39 -32 64 -85 64h-109v-132z" />
    <glyph glyph-name="registered" unicode="&#xae;" horiz-adv-x="403" 
d="M277 360c-98 0 -174 79 -174 174v1c0 95 77 175 174 175c98 0 174 -79 174 -174v-1c0 -95 -77 -175 -174 -175zM277 379c87 0 154 71 154 156v1c0 85 -66 155 -154 155c-87 0 -154 -71 -154 -156v-1c0 -85 66 -155 154 -155zM209 450v177h80c39 0 68 -19 68 -56
c0 -29 -17 -47 -41 -54l47 -67h-41l-42 61h-37v-61h-34zM243 539h43c23 0 36 12 36 29c0 19 -13 29 -36 29h-43v-58z" />
    <glyph glyph-name="servicemark" unicode="&#x2120;" horiz-adv-x="707" 
d="M204 387c-54 0 -101 23 -129 59l32 26c27 -30 59 -48 101 -48c41 0 71 22 71 53c0 22 -14 34 -61 53c-57 23 -85 43 -85 83c0 53 50 92 117 92c48 0 87 -19 111 -47l-30 -29c-23 25 -49 39 -85 39c-42 0 -68 -24 -68 -49c0 -23 17 -36 66 -54c53 -20 79 -42 79 -82
c0 -57 -53 -96 -119 -96zM375 392l87 308h42l65 -169l154 169h51l-87 -308h-43l67 236l-155 -167h-5l-65 167l-67 -236h-44z" />
    <glyph glyph-name="trademark" unicode="&#x2122;" horiz-adv-x="693" 
d="M361 392l87 308h42l65 -169l154 169h51l-87 -308h-43l67 236l-155 -167h-5l-65 167l-67 -236h-44zM150 392l74 266h-98l12 42h241l-12 -42h-98l-75 -266h-44z" />
    <glyph glyph-name="asterisk" unicode="*" horiz-adv-x="430" 
d="M272 395l-51 13l43 119l-119 -43l-15 51l127 22l-99 82l39 38l81 -97l22 123l51 -13l-43 -118l119 43l15 -52l-127 -21l99 -82l-39 -38l-81 97z" />
    <glyph glyph-name="dagger" unicode="&#x2020;" horiz-adv-x="411" 
d="M159 238l81 282l-125 -8l15 55l120 -8l30 141h61l-47 -141l125 8l-15 -55l-122 8l-68 -282h-55z" />
    <glyph glyph-name="daggerdbl" unicode="&#x2021;" horiz-adv-x="425" 
d="M99 0l46 141l-124 -8l14 55l121 -8l40 170l51 170l-125 -8l15 55l121 -8l29 141h61l-46 -141l125 8l-15 -55l-122 8l-39 -170l-52 -170l126 8l-15 -55l-120 8l-30 -141h-61z" />
    <glyph glyph-name="dollar" unicode="$" horiz-adv-x="623" 
d="M182 -98l30 104c-90 15 -165 59 -214 118l58 49c44 -51 104 -86 180 -98l68 252c-118 45 -175 88 -175 177c0 112 106 196 244 196c12 0 23 -1 34 -1l17 59h63l-18 -68c70 -15 124 -48 167 -90l-55 -53c-36 36 -81 62 -136 74l-66 -238c115 -42 170 -91 170 -179
c0 -119 -108 -204 -262 -204h-14l-27 -98h-64zM292 70c103 -2 176 49 176 126c0 47 -28 79 -110 112zM326 402l62 227c-103 10 -178 -45 -178 -117c0 -50 33 -78 116 -110z" />
    <glyph glyph-name="sterling" unicode="&#xa3;" horiz-adv-x="629" 
d="M-5 0l12 46l89 21l62 228h-84l19 69h83l33 121c17 64 44 119 80 154c44 45 98 69 169 69c97 0 158 -48 194 -113l-65 -42c-31 51 -68 82 -134 82c-44 0 -79 -16 -107 -44c-27 -27 -48 -68 -62 -120l-29 -107h280l-19 -69h-280l-60 -225h356l-19 -70h-518z" />
    <glyph glyph-name="Euro" unicode="&#x20ac;" horiz-adv-x="694" 
d="M378 -12c-139 0 -240 95 -250 249h-95l17 63h79c2 37 8 73 19 108h-70l17 62h73c58 139 174 242 326 242c124 0 197 -69 228 -160l-68 -31c-32 74 -77 119 -169 119c-100 0 -183 -70 -230 -170h272l-17 -62h-279c-10 -35 -18 -71 -20 -108h271l-17 -63h-254
c7 -106 69 -177 169 -177c78 0 133 33 185 90l53 -46c-59 -68 -133 -116 -240 -116z" />
    <glyph glyph-name="yen" unicode="&#xa5;" horiz-adv-x="703" 
d="M240 0l31 116h-203l16 62h203l23 88h-203l17 62h177l-158 372h88l141 -344l326 344h99l-360 -372h174l-17 -62h-206l-23 -88h206l-17 -62h-206l-30 -116h-78z" />
    <glyph glyph-name="cent" unicode="&#xa2;" horiz-adv-x="566" 
d="M204 105c-81 34 -131 110 -131 204c0 173 137 316 308 316c9 0 18 0 26 -1l33 82h64l-37 -93c65 -21 106 -64 129 -110l-61 -39c-22 38 -50 69 -97 84l-154 -393c8 -1 16 -2 25 -2c68 0 119 25 166 66l45 -51c-53 -49 -119 -84 -212 -84c-16 0 -32 1 -47 4l-37 -94h-64z
M383 556h-5c-127 0 -227 -114 -227 -246c0 -63 31 -114 81 -140z" />
    <glyph glyph-name="numbersign" unicode="#" horiz-adv-x="682" 
d="M77 0l62 177h-110l17 69h117l74 212h-122l18 69h128l60 173h71l-61 -173h191l60 173h71l-61 -173h111l-18 -69h-116l-75 -212h123l-18 -69h-129l-61 -177h-71l62 177h-191l-61 -177h-71zM234 246h189l75 212h-190z" />
    <glyph glyph-name="paragraph" unicode="&#xb6;" horiz-adv-x="517" 
d="M268 0l66 249c-133 6 -236 61 -236 191c0 158 121 260 333 260h105l-188 -700h-80z" />
    <glyph glyph-name="section" unicode="&#xa7;" horiz-adv-x="632" 
d="M287 -10c-95 0 -180 38 -225 85l50 50c39 -38 106 -71 182 -71c61 0 108 27 108 67c0 37 -38 59 -129 90c-119 40 -188 75 -188 145c0 75 75 124 181 129c-35 19 -66 50 -66 93c0 81 86 133 193 133c94 0 179 -38 224 -85l-49 -50c-39 37 -106 71 -183 71
c-61 0 -108 -27 -108 -67c0 -37 38 -60 129 -90c119 -40 188 -75 188 -145c0 -75 -75 -124 -181 -129c36 -19 66 -50 66 -93c0 -81 -86 -133 -192 -133zM394 257c70 0 124 35 124 78c0 36 -35 60 -120 88c-43 14 -72 21 -113 21c-70 0 -124 -35 -124 -78
c0 -36 35 -60 120 -88c43 -15 72 -21 113 -21z" />
    <glyph glyph-name="ordfeminine" unicode="&#xaa;" horiz-adv-x="390" 
d="M190 407c-48 0 -85 30 -85 76c0 66 55 107 130 107c34 0 67 -8 93 -15l2 6c2 7 4 18 4 24c0 33 -23 53 -72 53c-30 0 -56 -6 -80 -15l-9 43c29 11 60 18 99 18c73 0 113 -34 113 -89c0 -13 -3 -27 -6 -40l-43 -162h-51l12 46c-27 -30 -62 -52 -107 -52zM56 289l12 47h250
l-12 -47h-250zM207 446c47 0 97 38 109 83l4 13c-22 6 -50 11 -81 11c-48 0 -81 -26 -81 -64c0 -25 19 -43 49 -43z" />
    <glyph glyph-name="ordmasculine" unicode="&#xba;" horiz-adv-x="393" 
d="M245 405c-80 0 -133 55 -133 131c0 89 75 169 168 169c80 0 133 -56 133 -131c0 -89 -75 -169 -168 -169zM58 289l12 47h270l-12 -47h-270zM248 451c62 0 112 59 112 121c0 52 -34 87 -83 87c-63 0 -112 -59 -112 -121c0 -52 34 -87 83 -87z" />
    <glyph glyph-name="degree" unicode="&#xb0;" horiz-adv-x="387" 
d="M223 398c-80 0 -135 57 -135 134c0 92 78 174 173 174c80 0 135 -57 135 -133c0 -92 -78 -175 -173 -175zM228 450c60 0 111 57 111 118c0 53 -34 86 -83 86c-60 0 -111 -57 -111 -118c0 -53 34 -86 83 -86z" />
    <glyph glyph-name="percent" unicode="%" horiz-adv-x="837" 
d="M232 346c-84 0 -141 64 -141 146c0 110 82 216 191 216c85 0 142 -64 142 -146c0 -110 -82 -216 -192 -216zM64 0l679 700h79l-679 -700h-79zM603 -7c-84 0 -141 63 -141 146c0 109 82 216 192 216c84 0 141 -64 141 -146c0 -110 -82 -216 -192 -216zM237 401
c71 0 125 82 125 156c0 58 -31 96 -84 96c-71 0 -125 -82 -125 -156c0 -58 30 -96 84 -96zM608 48c71 0 125 82 125 156c0 58 -31 96 -84 96c-71 0 -125 -82 -125 -157c0 -57 31 -95 84 -95z" />
    <glyph glyph-name="perthousand" unicode="&#x2030;" horiz-adv-x="1226" 
d="M232 346c-84 0 -141 64 -141 146c0 110 82 216 191 216c85 0 142 -64 142 -146c0 -110 -82 -216 -192 -216zM64 0l679 700h79l-679 -700h-79zM992 -7c-84 0 -141 63 -141 146c0 109 82 216 192 216c84 0 141 -64 141 -146c0 -110 -82 -216 -192 -216zM603 -7
c-84 0 -141 63 -141 146c0 109 82 216 192 216c84 0 141 -64 141 -146c0 -110 -82 -216 -192 -216zM237 401c71 0 125 82 125 156c0 58 -31 96 -84 96c-71 0 -125 -82 -125 -156c0 -58 30 -96 84 -96zM997 48c71 0 125 82 125 156c0 58 -31 96 -84 96
c-71 0 -125 -82 -125 -157c0 -57 31 -95 84 -95zM608 48c71 0 125 82 125 156c0 58 -31 96 -84 96c-71 0 -125 -82 -125 -157c0 -57 31 -95 84 -95z" />
    <glyph glyph-name="quotedbl" unicode="&#x22;" horiz-adv-x="442" 
d="M297 428l91 272h92l-1 -5l-139 -267h-43zM100 428l91 272h92l-1 -5l-139 -267h-43z" />
    <glyph glyph-name="quotesingle" unicode="'" horiz-adv-x="245" 
d="M100 428l91 272h92l-1 -5l-139 -267h-43z" />
    <glyph glyph-name="plus" unicode="+" horiz-adv-x="625" 
d="M236 110l55 206h-207l19 72h207l56 206h75l-56 -206h208l-20 -72h-207l-55 -206h-75z" />
    <glyph glyph-name="minus" unicode="&#x2212;" horiz-adv-x="625" 
d="M573 315h-489l19 74h490z" />
    <glyph glyph-name="divide" unicode="&#xf7;" horiz-adv-x="625" 
d="M327 499l28 104h100l-27 -104h-101zM573 317h-489l19 70h489zM221 102l28 103h100l-28 -103h-100z" />
    <glyph glyph-name="equal" unicode="=" horiz-adv-x="625" 
d="M130 432l19 74h460l-20 -74h-459zM66 198l21 74h459l-20 -74h-460z" />
    <glyph glyph-name="multiply" unicode="&#xd7;" horiz-adv-x="625" 
d="M456 129l-126 174l-222 -176l-41 55l223 175l-129 172l62 47l125 -175l222 177l41 -56l-223 -174l129 -172z" />
    <glyph glyph-name="less" unicode="&#x3c;" horiz-adv-x="625" 
d="M487 86l-408 233l18 66l533 233l-22 -83l-436 -188l335 -189z" />
    <glyph glyph-name="greater" unicode="&#x3e;" horiz-adv-x="625" 
d="M44 86l22 83l436 188l-335 189l20 72l408 -233l-18 -66z" />
    <glyph glyph-name="plusminus" unicode="&#xb1;" horiz-adv-x="625" 
d="M577 364h-199l-53 -195h-73l53 195h-200l19 70h200l51 195h74l-52 -195h199zM480 0h-471l18 69h471z" />
    <glyph glyph-name="space" unicode=" " horiz-adv-x="300" 
 />
    <glyph glyph-name="uni00A0" unicode="&#xa0;" horiz-adv-x="300" 
 />
    <glyph glyph-name="emspace" unicode="&#x2003;" horiz-adv-x="1000" 
 />
    <glyph glyph-name="enspace" unicode="&#x2002;" 
 />
    <glyph glyph-name="threeperemspace" unicode="&#x2004;" horiz-adv-x="333" 
 />
    <glyph glyph-name="fourperemspace" unicode="&#x2005;" horiz-adv-x="250" 
 />
    <glyph glyph-name="thinspace" unicode="&#x2009;" horiz-adv-x="133" 
 />
    <glyph glyph-name="hairspace" unicode="&#x200a;" horiz-adv-x="75" 
 />
    <glyph glyph-name="florin" unicode="&#x192;" horiz-adv-x="531" 
d="M41 -10c-30 0 -50 4 -66 9l19 64c11 -3 25 -7 47 -7c41 0 73 29 102 95l98 222h-97l18 67h108l54 121c43 99 102 149 185 149c39 0 68 -7 93 -17l-20 -64c-20 8 -43 14 -72 14c-51 0 -88 -33 -119 -103l-44 -100h150l-17 -67h-162l-107 -243
c-46 -105 -101 -140 -170 -140z" />
    <glyph glyph-name="asciicircum" unicode="^" 
d="M117 493l211 209h60l100 -209h-61l-77 154l-159 -154h-74z" />
    <glyph glyph-name="asciitilde" unicode="~" horiz-adv-x="473" 
d="M128 238l-50 22c33 69 69 106 118 106c31 0 48 -13 70 -33c23 -21 32 -29 49 -29c24 0 40 21 62 59l49 -21c-32 -69 -68 -106 -117 -106c-31 0 -47 13 -70 33c-23 21 -33 29 -49 29c-24 0 -40 -21 -62 -60z" />
    <glyph glyph-name="fraction" unicode="&#x2044;" horiz-adv-x="542" 
d="M-98 -98l697 856h79l-697 -856h-79z" />
    <glyph glyph-name="NUL" horiz-adv-x="0" 
 />
    <glyph glyph-name="hfjslug" horiz-adv-x="694" 
d="M644 -200h-208l-8 14h-163l-8 -14h-207v303c18 0 32 14 32 32c0 17 -14 32 -32 32v554h100l30 79h334l29 -79h101v-921zM400 563v-172h15v78h38v14h-38v66h43v14h-58zM184 563v-172h15v79h47v-79h15v172h-15v-79h-47v79h-15zM460 394c5 -2 14 -4 21 -4c20 0 31 11 31 36
v137h-16v-137c0 -16 -5 -22 -16 -22c-6 0 -15 3 -20 5v-15zM371 465l-13 3c-2 -9 -5 -21 -8 -30h-1l-16 31c13 12 23 26 23 42c0 17 -9 31 -27 31c-17 0 -28 -14 -28 -31c0 -15 6 -24 14 -39c-15 -12 -23 -28 -23 -47c0 -22 12 -37 29 -37c13 0 23 9 29 24h1l12 -24l12 6
l-17 32c5 12 9 25 13 39zM523 323v-46h8v12l8 8l15 -20h10l-20 26l18 20h-10l-20 -24h-1v24h-8zM488 292l10 -15h9l-12 17c5 2 10 6 10 14c0 9 -7 15 -17 15h-20v-46h8v15h12zM426 276c14 0 24 11 24 24c0 12 -10 24 -24 24s-24 -12 -24 -24c0 -13 10 -24 24 -24zM370 301
l-13 22h-9l18 -29v-17h8v17l18 29h-9zM193 323v-46h34v7h-26v13h23v7h-23v12h26v7h-34zM132 323v-46h8v32l25 -32h7v46h-8v-32l-25 32h-7zM241 323l14 -47h8l11 34h1l11 -34h8l14 47h-8l-10 -35h-1l-11 35h-7l-11 -35h-1l-10 35h-8zM327 479c-7 13 -12 22 -12 32
c0 11 6 19 14 19s13 -8 13 -19c0 -12 -5 -21 -15 -32zM342 423c-5 -13 -12 -21 -20 -21c-9 0 -16 10 -16 25c0 13 7 26 16 35zM487 299h-11v17h11c6 0 10 -3 10 -8s-4 -9 -10 -9zM426 283c-10 0 -16 8 -16 17c0 8 6 17 16 17s16 -9 16 -17c0 -9 -6 -17 -16 -17z" />
    <glyph glyph-name="i.dot" horiz-adv-x="264" 
d="M188 630l23 85h88l-23 -85h-88zM24 0l139 517h77l-139 -517h-77z" />
    <glyph glyph-name="acute" unicode="&#xb4;" 
d="M239 595l134 145l80 -37l-142 -108h-72z" />
    <glyph glyph-name="hungarumlaut" unicode="&#x2dd;" 
d="M337 595l135 145l65 -37l-139 -108h-61zM173 595l135 145l64 -37l-137 -108h-62z" />
    <glyph glyph-name="caron.alt" 
d="M293 565l55 165h77v-3l-95 -162h-37z" />
    <glyph glyph-name="grave" unicode="`" 
d="M362 595l-83 108l81 37l56 -145h-54z" />
    <glyph glyph-name="circumflex" unicode="&#x2c6;" 
d="M201 595l141 131h68l71 -131h-62l-54 67l-96 -67h-68z" />
    <glyph glyph-name="caron" unicode="&#x2c7;" 
d="M515 726l-142 -131h-68l-71 131h62l55 -67l96 67h68z" />
    <glyph glyph-name="breve" unicode="&#x2d8;" 
d="M344 593c-88 0 -131 51 -121 125h56c0 -38 20 -63 73 -63c54 0 86 27 108 63h60c-26 -76 -93 -125 -176 -125z" />
    <glyph glyph-name="tilde" unicode="&#x2dc;" 
d="M227 586l-47 14c33 75 63 104 111 104c44 0 91 -40 126 -40c26 0 40 13 61 49l47 -13c-33 -76 -62 -105 -111 -105c-44 0 -91 40 -126 40c-26 0 -40 -13 -61 -49z" />
    <glyph glyph-name="macron" unicode="&#xaf;" 
d="M186 615l17 63h319l-17 -63h-319z" />
    <glyph glyph-name="dieresis" unicode="&#xa8;" 
d="M375 595l26 95h89l-26 -95h-89zM198 595l26 95h90l-26 -95h-90z" />
    <glyph glyph-name="dotaccent" unicode="&#x2d9;" 
d="M295 594l27 98h89l-27 -98h-89z" />
    <glyph glyph-name="ring" unicode="&#x2da;" 
d="M360 593c-61 0 -103 41 -103 95c0 61 56 114 121 114c61 0 103 -41 103 -95c0 -61 -56 -114 -121 -114zM361 630c42 0 78 35 78 75c0 35 -24 60 -62 60c-43 0 -78 -35 -78 -75c0 -34 24 -60 62 -60z" />
    <glyph glyph-name="acute.cap" 
d="M308 762l135 129l78 -36l-139 -93h-74z" />
    <glyph glyph-name="hungarumlaut.cap" 
d="M217 762l135 129l77 -36l-140 -93h-72zM372 762l135 129l77 -36l-140 -93h-72z" />
    <glyph glyph-name="grave.cap" 
d="M387 891l66 -129h-55l-90 93z" />
    <glyph glyph-name="circumflex.cap" 
d="M239 762l142 118h72l78 -118h-67l-58 60l-91 -60h-76z" />
    <glyph glyph-name="caron.cap" 
d="M563 880l-141 -118h-73l-78 118h67l58 -60l91 60h76z" />
    <glyph glyph-name="breve.cap" 
d="M385 760c-83 0 -131 42 -118 114h56c2 -33 22 -52 75 -52c50 0 82 20 102 52h63c-25 -72 -96 -114 -178 -114z" />
    <glyph glyph-name="tilde.cap" 
d="M270 753l-48 15c32 69 63 101 109 101c45 0 95 -39 128 -39c26 0 40 14 60 47l49 -15c-32 -69 -63 -100 -109 -100c-45 0 -95 39 -128 39c-26 0 -40 -14 -61 -48z" />
    <glyph glyph-name="macron.cap" 
d="M227 783l17 64h329l-17 -64h-329z" />
    <glyph glyph-name="dieresis.cap" 
d="M432 762l25 90h93l-25 -90h-93zM245 762l25 90h93l-24 -90h-94z" />
    <glyph glyph-name="dotaccent.cap" 
d="M337 762l25 90h96l-25 -90h-96z" />
    <glyph glyph-name="ring.cap" 
d="M354 760c-57 0 -99 37 -99 87c0 63 56 111 125 111c58 0 99 -37 99 -86c0 -63 -56 -112 -125 -112zM358 798c41 0 76 31 76 70c0 30 -21 53 -58 53c-41 0 -76 -31 -76 -70c0 -33 24 -53 58 -53z" />
    <glyph glyph-name="commaaccent" unicode="&#x326;" 
d="M58 -243l1 30c46 7 69 25 78 60h-41l22 83h90l-19 -71c-19 -70 -59 -96 -131 -102z" />
    <glyph glyph-name="cedilla" unicode="&#xb8;" 
d="M129 -155l-66 34l125 131h61z" />
    <glyph glyph-name="ogonek" unicode="&#x2db;" 
d="M97 -99c0 43 42 79 96 115l48 -13c-50 -36 -75 -63 -75 -87c0 -22 19 -31 64 -36l-11 -44c-5 -1 -9 -1 -14 -1c-71 4 -108 25 -108 66z" />
    </font>
</defs>
</svg>
